Subcategories

Astrud Gilberto - Verve Jazz Masters 9 (1993)

Posted By: Designol
Astrud Gilberto - Verve Jazz Masters 9 (1993)

Astrud Gilberto - Verve Jazz Masters 9 (1993)
EAC | FLAC | Image (Cue&Log) ~ 276 Mb | Mp3 (CBR320) ~ 115 Mb | Scans ~ 58 Mb
Bossa Nova, Brazilian Jazz, Vocal Pop | Label: Verve | # 519 824-2 | 00:50:00

Astrud Gilberto's entry in the nicely appointed Verve Jazz Masters compilation series shows exactly why the Brazilian singer is deserving of such an accolade. In her '60s heyday, Gilberto was often derided by jazz purists for her vibrato-less "desafinado" (deliberately slightly off-pitch) singing style and deadpan, childlike voice. But the diminutive bossa nova star has since been a huge influence on dozens of jazz and pop singers.

VERVE JAZZ MASTERS is less of a greatest hits package than it is a smartly balanced retrospective of many of Gilberto's best performances. Her biggest hits, "Call Me" and "Summer Samba," are not included, and her signature tune, "The Girl From Ipanema," is only represented by a live take from a 1964 Carnegie Hall concert. The collection places equal emphasis on Gilberto's bossa nova-style interpretations of jazz standards and on her signature Portuguese-language sambas.

Review by Allmusic.com

Astrud Gilberto - Verve Jazz Masters 9 (1993)



Tracklist:

01. Vivo Sonhando (Dreamer) (2:05)
02. Garota de Ipanema (The Girl from Ipanema) (6:36)
03. Once Upon a Summertime (3:06)
04. Felicidade (2:48)
05. A Certain Sadness (3:11)
06. Agua de Beber (2:20)
07. Frevo (2:28)
08. Corcovado (Quiet Nights of Quiet Stars) (5:38)
09. Dindi (2:43)
10. Chovendra na Roseiro (Look to the Rainbow) (3:29)
11. Day by Day (2:07)
12. The Shadow of Your Smile (2:31)
13. Aruanda (Take Me to Aruanda) (2:31)
14. The Gentle Rain (2:27)
15. Goodbye Sadness (3:36)
16. Berimbau (2:23)


Exact Audio Copy V1.1 from 23. June 2015

Отчёт EAC об извлечении, выполненном 3. июня 2017, 18:53

Astrud Gilberto / Verve Jazz Masters 9

Дисковод: TEAC CD-W552GB Adapter: 1 ID: 0

Режим чтения : Достоверность
Использование точного потока : Да
Отключение кэша аудио : Да
Использование указателей C2 : Нет

Коррекция смещения при чтении : 6
Способность читать области Lead-in и Lead-out : Нет
Заполнение пропущенных сэмплов тишиной : Да
Удаление блоков с тишиной в начале и конце : Нет
При вычислениях CRC использовались нулевые сэмплы : Да
Интерфейс : Встроенный Win32-интерфейс для Win NT/2000

Выходной формат : Пользовательский кодировщик
Выбранный битрейт : 1024 kBit/s
Качество : Высокий
Добавление ID3-тега : Нет
Утилита сжатия : C:\Program Files (x86)\Exact Audio Copy\Flac\flac.exe
Дополнительные параметры : -V -8 -T "Date=%year%" -T "Genre=%genre%" %source%


TOC извлечённого CD

Трек | Старт | Длительность | Начальный сектор | Конечный сектор
––––––––––––––––––––––––––––––––––-
1 | 0:00.32 | 2:05.18 | 32 | 9424
2 | 2:05.50 | 6:35.50 | 9425 | 39099
3 | 8:41.25 | 3:06.32 | 39100 | 53081
4 | 11:47.57 | 2:48.03 | 53082 | 65684
5 | 14:35.60 | 3:10.50 | 65685 | 79984
6 | 17:46.35 | 2:19.72 | 79985 | 90481
7 | 20:06.32 | 2:28.13 | 90482 | 101594
8 | 22:34.45 | 5:38.25 | 101595 | 126969
9 | 28:12.70 | 2:43.02 | 126970 | 139196
10 | 30:55.72 | 3:29.23 | 139197 | 154894
11 | 34:25.20 | 2:07.25 | 154895 | 164444
12 | 36:32.45 | 2:31.00 | 164445 | 175769
13 | 39:03.45 | 2:31.25 | 175770 | 187119
14 | 41:34.70 | 2:26.52 | 187120 | 198121
15 | 44:01.47 | 3:35.48 | 198122 | 214294
16 | 47:37.20 | 2:23.00 | 214295 | 225019


Характеристики диапазона извлечения и сообщения об ошибках

Выбранный диапазон

Имя файла D:\MuCD\Astrud Gilberto - Verve Jazz Masters 9\Astrud Gilberto - Verve Jazz Masters 9.wav

Пиковый уровень 100.0 %
Скорость извлечения 8.6 X
Качество диапазона 99.9 %
CRC теста D4A2C50A
CRC копии D4A2C50A
Копирование… OK

Ошибок не произошло


AccurateRip: сводка

Трек 1 : извлечено точно (доверие 5) [CA5E6517] (AR v2)
Трек 2 : извлечено точно (доверие 5) [D80685EB] (AR v2)
Трек 3 : извлечено точно (доверие 5) [46B36580] (AR v2)
Трек 4 : извлечено точно (доверие 5) [C70C99E0] (AR v2)
Трек 5 : извлечено точно (доверие 5) [389F5382] (AR v2)
Трек 6 : извлечено точно (доверие 5) [AEE87EF7] (AR v2)
Трек 7 : извлечено точно (доверие 5) [001EF27D] (AR v2)
Трек 8 : извлечено точно (доверие 5) [457B86B2] (AR v2)
Трек 9 : извлечено точно (доверие 5) [5D1A5A41] (AR v2)
Трек 10 : извлечено точно (доверие 5) [422481ED] (AR v2)
Трек 11 : извлечено точно (доверие 5) [754AE5B8] (AR v2)
Трек 12 : извлечено точно (доверие 5) [47E4000B] (AR v2)
Трек 13 : извлечено точно (доверие 5) [78909A7E] (AR v2)
Трек 14 : извлечено точно (доверие 5) [A9DC1B83] (AR v2)
Трек 15 : извлечено точно (доверие 5) [E938B23C] (AR v2)
Трек 16 : извлечено точно (доверие 5) [DF22233A] (AR v2)

Все треки извлечены точно

Конец отчёта

==== Контрольная сумма отчёта E0F6D8D7B2F822B54195616C8BE0AC70BECC7DED2F4F7A2193AB3DF3BC19323C ====

foobar2000 1.2 / Dynamic Range Meter 1.1.1
log date: 2017-06-03 21:19:30

––––––––––––––––––––––––––––––––––––––––
Analyzed: Astrud Gilberto / Verve Jazz Masters 9
––––––––––––––––––––––––––––––––––––––––

DR Peak RMS Duration Track
––––––––––––––––––––––––––––––––––––––––
DR10 -0.14 dB -15.36 dB 2:05 01-Vivo Sonhando (Dreamer)
DR13 -1.60 dB -19.06 dB 6:36 02-Garota de Ipanema (The Girl from Ipanema)
DR9 -2.10 dB -15.35 dB 3:06 03-Once Upon a Summertime
DR9 -1.18 dB -14.09 dB 2:48 04-Felicidade
DR12 -1.34 dB -17.72 dB 3:11 05-A Certain Sadness
DR11 -0.82 dB -16.23 dB 2:20 06-Agua de Beber
DR10 -0.77 dB -14.91 dB 2:28 07-Frevo
DR15 -0.57 dB -19.72 dB 5:38 08-Corcovado (Quiet Nights of Quiet Stars)
DR11 -1.29 dB -16.78 dB 2:43 09-Dindi
DR10 -1.84 dB -15.14 dB 3:29 10-Chovendra na Roseiro (Look to the Rainbow)
DR10 0.00 dB -13.39 dB 2:07 11-Day by Day
DR11 -2.77 dB -16.87 dB 2:31 12-The Shadow of Your Smile
DR13 -0.78 dB -16.52 dB 2:31 13-Aruanda (Take Me to Aruanda)
DR10 -0.16 dB -13.11 dB 2:27 14-The Gentle Rain
DR12 -2.02 dB -15.55 dB 3:36 15-Goodbye Sadness
DR11 -4.25 dB -18.03 dB 2:23 16-Berimbau
––––––––––––––––––––––––––––––––––––––––

Number of tracks: 16
Official DR value: DR11

Samplerate: 44100 Hz
Channels: 2
Bits per sample: 16
Bitrate: 770 kbps
Codec: FLAC
================================================================================

Astrud Gilberto - Verve Jazz Masters 9 (1993)

Astrud Gilberto - Verve Jazz Masters 9 (1993)

All thanks to original releaser - squirr

More interesting music in My Blog