Atlanta Rhythm Section - Underdog (1979) + The Boys from Doraville (1980) 2 LP in 1 CD, Remastered 2010

Posted By: Designol
Atlanta Rhythm Section - Underdog (1979) + The Boys from Doraville (1980) 2 LP in 1 CD, Remastered 2010

Atlanta Rhythm Section - Underdog (1979) + The Boys from Doraville (1980) 2 LP in 1 CD, 2010
EAC | APE | Image (Cue&Log) ~ 465 Mb | Mp3 (CBR320) ~ 180 Mb | Scans included
Southern Rock, Classic Rock, Pop Rock | Label: BGO | # BGOCD918 | 01:16:57

The eighth and ninth studio albums (there was a live recording between them) from the Atlanta Rhythm Section got a belated U.K. CD release in 2010. These closed out the act's affiliation with Polydor Records and are condensed onto a single CD here, as well as digitally remastered. It's another in the classy series of ARS reissues from BGO, which has treated the Southern pop act's catalog with utmost respect on four previous discs that bring the group's original albums back in print for collectors and music fans who want more than the 17 hits on Polydor's well-chosen 1982 vintage Best Of. Liner notes from Campbell Devine tend to be fawning but include a comprehensive history of the band, recounting its story leading up to and even after the recording of these tunes. Musically, ARS captured a unique style halfway between the smooth West Coast pop of the late '70s and the Southern rock of the era. Underdog, from 1979, is a pleasant if overly laid-back collection that included a charting cover of "Spooky," originally a hit for the Classics IV, members of whom ended up in ARS. Overall, the album plays off the success of 1978's Champagne Jam, which yielded the quintet's biggest hit, "Imaginary Lover," a song whose lazy tempo and prominent keyboards were a substantial part of its appeal. The guitars crank up a bit on "It's Only Music" and tacking on a cover of Ray Charles' "Let's Go Get Stoned" to the end of the sly "I Hate the Blues" is a sharp move, but overall the members seem tired and not entirely focused. The closing acoustic ballad "My Song" alludes to having to play tunes the crowds demand to hear nightly. As if to show they are revived, 1980's The Boys from Doraville is decidedly more propulsive. It opens with the chugging J.J. Cale-ish "Cocaine Charley," then shifts into full Steely Dan mode on "Next Year's Rock & Roll." "Silver Eagle" displays a pronounced country influence with its pedal steel guitar and there are a few ballads, but this feels like a rejuvenated band with something to prove. Though it only peaked at 65 on the Billboard charts, vocalist Ronnie Hammond sings with real soul, a combination of Michael McDonald's throaty croon with a bit of Paul Rodgers' rough rock & roll rasp. It's not the group's finest moment, but this can be considered a hidden gem in the Atlanta Rhythm Section's catalog and is well worth seeking out for fans who might have missed it the first time around.

Review by Hal Horowitz, Allmusic.com

Atlanta Rhythm Section - Underdog (1979) + The Boys from Doraville (1980) 2 LP in 1 CD, Remastered 2010

Atlanta Rhythm Section - Underdog (1979) + The Boys from Doraville (1980) 2 LP in 1 CD, Remastered 2010



Tracklist:

'Underdog' (1979):

01. Do It Or Die (3:31)
02. Born Ready (3:59)
03. I Hate The Blues Let's Go Get Stoned (7:17)
04. Indigo Passion (4:00)
05. While Time Is Left (5:22)
06. It's Only Music (5:38)
07. Spooky (5:01)
08. My Song (3:20)

'The Boys from Doraville' (1980):

09. Cocaine Charlie (4:53)
10. Next Year's Rock & Roll (5:24)
11. I Ain't Much (4:26)
12. Putting My Faith In Love (5:13)
13. Rough At The Edges (3:20)
14. Silver Eagle (3:53)
15. Pedestal (2:49)
16. Try My love (4:04)
17. Strictly R&R (4:47)


Exact Audio Copy V1.0 beta 2 from 29. April 2011

Отчёт EAC об извлечении, выполненном 3. марта 2012, 8:59

Atlanta Rhythm Section / Underdog & The Boys From Doraville

Дисковод: _NEC DV-5800C Adapter: 3 ID: 1

Режим чтения : Достоверность
Использование точного потока : Да
Отключение кэша аудио : Да
Использование указателей C2 : Нет

Коррекция смещения при чтении : 12
Способность читать области Lead-in и Lead-out : Нет
Заполнение пропущенных сэмплов тишиной : Да
Удаление блоков с тишиной в начале и конце : Нет
При вычислениях CRC использовались нулевые сэмплы : Нет
Интерфейс : Встроенный Win32-интерфейс для Win NT/2000

Выходной формат : Внутренние WAV-операции
Формат сэмплов : 44.100 Гц; 16 бит; стерео


TOC извлечённого CD

Трек | Старт | Длительность | Начальный сектор | Конечный сектор
––––––––––––––––––––––––––––––––––-
1 | 0:00.00 | 3:30.68 | 0 | 15817
2 | 3:30.68 | 3:59.12 | 15818 | 33754
3 | 7:30.05 | 7:17.17 | 33755 | 66546
4 | 14:47.22 | 3:59.72 | 66547 | 84543
5 | 18:47.19 | 5:22.01 | 84544 | 108694
6 | 24:09.20 | 5:38.08 | 108695 | 134052
7 | 29:47.28 | 5:01.29 | 134053 | 156656
8 | 34:48.57 | 3:20.14 | 156657 | 171670
9 | 38:08.71 | 4:52.55 | 171671 | 193625
10 | 43:01.51 | 5:24.20 | 193626 | 217945
11 | 48:25.71 | 4:25.61 | 217946 | 237881
12 | 52:51.57 | 5:13.21 | 237882 | 261377
13 | 58:05.03 | 3:19.66 | 261378 | 276368
14 | 61:24.69 | 3:52.67 | 276369 | 293835
15 | 65:17.61 | 2:49.09 | 293836 | 306519
16 | 68:06.70 | 4:03.60 | 306520 | 324804
17 | 72:10.55 | 4:46.49 | 324805 | 346303


Характеристики диапазона извлечения и сообщения об ошибках

Выбранный диапазон

Имя файла D:\Atlanta Rhythm Section - Underdog & The Boys From Doraville.wav

Пиковый уровень 98.8 %
Скорость извлечения 10.3 X
Качество диапазона 100.0 %
CRC копии 2043A703
Копирование… OK

Ошибок не произошло


AccurateRip: сводка

Трек 1 точность не определена (достоверность 3) [79024C54], AccurateRip вернул [BD89B836] (AR v2)
Трек 2 точность не определена (достоверность 3) [8619AA3D], AccurateRip вернул [7A7E2396] (AR v2)
Трек 3 точность не определена (достоверность 3) [475D288A], AccurateRip вернул [77EC4821] (AR v2)
Трек 4 точность не определена (достоверность 3) [450C00AE], AccurateRip вернул [70731688] (AR v2)
Трек 5 точность не определена (достоверность 3) [CA484AB1], AccurateRip вернул [CFA4786F] (AR v2)
Трек 6 точность не определена (достоверность 3) [41FABD3E], AccurateRip вернул [D9720556] (AR v2)
Трек 7 точность не определена (достоверность 3) [40EEEE48], AccurateRip вернул [3B74DE3F] (AR v2)
Трек 8 точность не определена (достоверность 3) [2D904E67], AccurateRip вернул [E792D413] (AR v2)
Трек 9 точность не определена (достоверность 3) [650944E4], AccurateRip вернул [9CDA8E3D] (AR v2)
Трек 10 точность не определена (достоверность 3) [E90FCB5B], AccurateRip вернул [FDE02DCC] (AR v2)
Трек 11 точность не определена (достоверность 3) [921572ED], AccurateRip вернул [9C57054A] (AR v2)
Трек 12 точность не определена (достоверность 3) [9D71DA0B], AccurateRip вернул [78A5E5F3] (AR v2)
Трек 13 точность не определена (достоверность 3) [18C4F407], AccurateRip вернул [4C150838] (AR v2)
Трек 14 точность не определена (достоверность 3) [09489E50], AccurateRip вернул [50F40425] (AR v2)
Трек 15 точность не определена (достоверность 3) [717C2CF9], AccurateRip вернул [2FA2B9C1] (AR v2)
Трек 16 точность не определена (достоверность 3) [42B572F2], AccurateRip вернул [57ABDA5E] (AR v2)
Трек 17 точность не определена (достоверность 3) [998152BD], AccurateRip вернул [E1627277] (AR v2)

Ни один трек не прошёл проверки на точность
В вашей базе может быть иной вариант штамповки диска

Конец отчёта

[CUETools log; Date: 09.07.2017 23:40:07; Version: 2.1.4]
[CTDB TOCID: vbzUOkFB.U4Kn8sISK3d17ElFZA-] found.
Track | CTDB Status
1 | (9/9) Accurately ripped
2 | (9/9) Accurately ripped
3 | (9/9) Accurately ripped
4 | (9/9) Accurately ripped
5 | (9/9) Accurately ripped
6 | (9/9) Accurately ripped
7 | (9/9) Accurately ripped
8 | (9/9) Accurately ripped
9 | (9/9) Accurately ripped
10 | (9/9) Accurately ripped
11 | (9/9) Accurately ripped
12 | (9/9) Accurately ripped
13 | (9/9) Accurately ripped
14 | (9/9) Accurately ripped
15 | (9/9) Accurately ripped
16 | (9/9) Accurately ripped
17 | (9/9) Accurately ripped
[AccurateRip ID: 00314ac6-026d8941-0a120911] found.
Track [ CRC | V2 ] Status
01 [ace2644a|79024c54] (00+05/16) Accurately ripped
02 [b30f65d2|8619aa3d] (00+05/17) Accurately ripped
03 [9fb2c0e1|475d288a] (00+05/17) Accurately ripped
04 [4f892488|450c00ae] (00+05/16) Accurately ripped
05 [3abbb677|ca484ab1] (00+05/16) Accurately ripped
06 [9cdcf9ee|41fabd3e] (00+05/17) Accurately ripped
07 [3a81e097|40eeee48] (00+05/17) Accurately ripped
08 [2f527b4b|2d904e67] (00+05/16) Accurately ripped
09 [01c6339d|650944e4] (00+05/17) Accurately ripped
10 [24388454|e90fcb5b] (00+05/17) Accurately ripped
11 [d1251c62|921572ed] (00+05/17) Accurately ripped
12 [6507435b|9d71da0b] (00+05/16) Accurately ripped
13 [468aba60|18c4f407] (00+05/17) Accurately ripped
14 [2a2ff66d|09489e50] (00+05/16) Accurately ripped
15 [388e944f|717c2cf9] (00+05/16) Accurately ripped
16 [1f2147d0|42b572f2] (00+05/17) Accurately ripped
17 [ff6136c7|998152bd] (00+05/17) Accurately ripped
Offsetted by -24:
01 [bd89b836] (03/16) Accurately ripped
02 [7a7e2396] (03/17) Accurately ripped
03 [77ec4821] (03/17) Accurately ripped
04 [70731688] (03/16) Accurately ripped
05 [cfa4786f] (03/16) Accurately ripped
06 [d9720556] (03/17) Accurately ripped
07 [3b74de3f] (03/17) Accurately ripped
08 [e792d413] (03/16) Accurately ripped
09 [9cda8e3d] (03/17) Accurately ripped
10 [fde02dcc] (03/17) Accurately ripped
11 [9c57054a] (03/17) Accurately ripped
12 [78a5e5f3] (03/16) Accurately ripped
13 [4c150838] (03/17) Accurately ripped
14 [50f40425] (03/16) Accurately ripped
15 [2fa2b9c1] (03/16) Accurately ripped
16 [57abda5e] (03/17) Accurately ripped
17 [e1627277] (03/17) Accurately ripped
Offsetted by -30:
01 [db36797d] (00/16) No match (V2 was not tested)
02 [6c6ed2b3] (00/17) No match (V2 was not tested)
03 [2dfaa9f1] (00/17) No match (V2 was not tested)
04 [78ad9308] (00/16) No match (V2 was not tested)
05 [74dea8ed] (00/16) No match (V2 was not tested)
06 [68974830] (00/17) No match (V2 was not tested)
07 [7bb19da9] (00/17) No match (V2 was not tested)
08 [95a2ea45] (00/16) No match (V2 was not tested)
09 [839fa4e5] (00/17) No match (V2 was not tested)
10 [344a182a] (00/17) No match (V2 was not tested)
11 [0f237f84] (00/17) No match (V2 was not tested)
12 [7d8d8e99] (00/16) No match (V2 was not tested)
13 [4d779bae] (00/17) No match (V2 was not tested)
14 [5aa50793] (00/16) No match (V2 was not tested)
15 [b6868ee9] (00/16) No match (V2 was not tested)
16 [25647cf6] (00/17) No match (V2 was not tested)
17 [d9e2c163] (00/17) No match (V2 was not tested)
Offsetted by 12:
01 [eb3fa6e8] (00/16) No match (V2 was not tested)
02 [cf510654] (00/17) No match (V2 was not tested)
03 [3395fd41] (00/17) No match (V2 was not tested)
04 [3f142b88] (00/16) No match (V2 was not tested)
05 [f047557b] (00/16) No match (V2 was not tested)
06 [7e92743a] (00/17) No match (V2 was not tested)
07 [ba0861c3] (00/17) No match (V2 was not tested)
08 [d3324ee7] (00/16) No match (V2 was not tested)
09 [343c064d] (00/17) No match (V2 was not tested)
10 [b764af98] (00/17) No match (V2 was not tested)
11 [eb8c27ee] (00/17) No match (V2 was not tested)
12 [5b37f20f] (00/16) No match (V2 was not tested)
13 [43c59374] (00/17) No match (V2 was not tested)
14 [16cdef91] (00/16) No match (V2 was not tested)
15 [454ffd2a] (00/16) No match (V2 was not tested)
16 [82e1fae5] (00/17) No match (V2 was not tested)
17 [0e6098ef] (00/17) No match (V2 was not tested)

Track Peak [ CRC32 ] [W/O NULL] [ LOG ]
– 98,8 [4C601570] [2043A703] W/O NULL
01 97,7 [E9EB1D9B] [221472A2]
02 97,7 [4AA61DD7] [6F8B0772]
03 97,7 [E738F32F] [62F105AE]
04 98,8 [26D1E9EE] [78C02A5B]
05 97,7 [B5BA1B7B] [D9C1FC2F]
06 92,2 [E5AD38C6] [DB40AED6]
07 89,1 [AE52A9B9] [069925AB]
08 84,7 [73523C09] [3BF1F280]
09 90,1 [C3E65419] [F687B01D]
10 76,7 [43BDB958] [C5B42E21]
11 76,7 [36FFB87C] [2B9A0F54]
12 76,7 [029D45E8] [91F4C18D]
13 88,1 [3FE13321] [6C01332D]
14 92,2 [F31FD7DC] [6F2A93CE]
15 97,7 [E001143D] [31673352]
16 97,7 [49C7CB5D] [0E2DF615]
17 97,7 [141542F8] [413887C2]

foobar2000 1.2 / Dynamic Range Meter 1.1.1
log date: 2017-07-10 00:36:33

––––––––––––––––––––––––––––––––––––––––
Analyzed: Atlanta Rhythm Section / Underdog & The Boys From Doraville
––––––––––––––––––––––––––––––––––––––––

DR Peak RMS Duration Track
––––––––––––––––––––––––––––––––––––––––
DR12 -0.20 dB -14.28 dB 3:31 01-Do It Or Die
DR11 -0.20 dB -13.21 dB 3:59 02-Born Ready
DR13 -0.20 dB -14.83 dB 7:17 03-I Hate The Blues Let's Go Get Stoned
DR13 -0.10 dB -15.78 dB 4:00 04-Indigo Passion
DR11 -0.20 dB -13.87 dB 5:22 05-While Time Is Left
DR10 -0.70 dB -12.84 dB 5:38 06-It's Only Music
DR11 -1.00 dB -13.72 dB 5:01 07-Spooky
DR12 -1.43 dB -20.55 dB 3:20 08-My Song
DR11 -0.90 dB -12.96 dB 4:53 09-Cocaine Charlie
DR9 -2.30 dB -12.81 dB 5:24 10-Next Year's Rock & Roll
DR10 -2.30 dB -13.50 dB 4:26 11-I Ain't Much
DR10 -2.30 dB -13.96 dB 5:13 12-Putting My Faith In Love
DR11 -1.10 dB -13.12 dB 3:20 13-Rough At The Edges
DR10 -0.70 dB -12.56 dB 3:53 14-Silver Eagle
DR11 -0.20 dB -13.48 dB 2:49 15-Pedestal
DR10 -0.20 dB -11.45 dB 4:04 16-Try My love
DR10 -0.20 dB -11.51 dB 4:47 17-Strictly R&R
––––––––––––––––––––––––––––––––––––––––

Number of tracks: 17
Official DR value: DR11

Samplerate: 44100 Hz
Channels: 2
Bits per sample: 16
Bitrate: 838 kbps
Codec: Monkey's Audio
================================================================================

Atlanta Rhythm Section - Underdog (1979) + The Boys from Doraville (1980) 2 LP in 1 CD, Remastered 2010

Atlanta Rhythm Section - Underdog (1979) + The Boys from Doraville (1980) 2 LP in 1 CD, Remastered 2010

All thanks to original releaser - Someone Else

More interesting music in My Blog