Subcategories

Atlanta Symphony Orchestra & Chorus, Donald Runnicles - Carl Orff: Carmina Burana (2001)

Posted By: tirexiss
Atlanta Symphony Orchestra & Chorus, Donald Runnicles - Carl Orff: Carmina Burana (2001)

Atlanta Symphony Orchestra & Chorus, Donald Runnicles - Carl Orff: Carmina Burana (2001)
EAC | APE (image+.cue, log) | Covers Included | 59:28 | 268 MB
Genre: Classical, Choral | Label: Telarc | Catalog: 60575

Carl Orff's Stravinskian rabble-rouser retains its appeal. The pagan high-jinks, driving rhythms, and dips into semi-hysteria can be irresistible given the right performance. And, of course, with its dynamic range, from delicately colored quiet passages to heaven-storming climaxes, it's tailor-made for showing off hi-fi systems. Telarc is known for its outstanding sound, and this one's well up to the house standards. The performance is a very good one, coming in just under the top choices, of which the venerable Jochum version on DG remains unsinged as number one. But the combination of the recording quality and the superb Atlanta Symphony Chorus won't fail to please. The orchestra is similarly outstanding, with piercing trumpets and terrific playing throughout. Hong's lovely soprano contributions make her the best of the soloists. Olson and Patriarco let the team down slightly in the popular "In the Tavern" section, the former uneasy in his high-flying part as the roasting swan, the latter rough-sounding at times. Runnicles conducts a powerful performance. After a start that underplays the opening movements, he compensates the rest of the way, making more of the quiet sections (a good part of the work) than most. – Dan Davis

Atlanta Symphony Orchestra & Chorus, Donald Runnicles - Carl Orff: Carmina Burana (2001)

Track List:

1. Fortuna Imperatrix Mundi: O Fortuna
2. Fortuna Imperatrix Mundi: Fortune plango vulnera
3. Part I - Primo Vere: Veris leta facies
4. Part I - Primo Vere: Omnia sol temperat
5. Part I - Primo Vere: Ecce gratum
6. Uf Dem Anger: Tanz
7. Uf Dem Anger: Floret silva nobilis
8. Uf Dem Anger: Chramer, gip die varwe mir
9. Uf Dem Anger: Reie and Songs
10. Uf Dem Anger: Were diu werlt alle min
11. Part II - In Taberna: Estuans interius
12. Part II - In Taberna: Olim lacus colueram
13. Part II - In Taberna: Ego sum abbas
14. Part II - In Taberna: In taberna quando sumus
15. Part III - Cour D'amours: Amor volat undique
16. Part III - Cour D'amours: Dies, nox et omnia
17. Part III - Cour D'amours: Stetit puella
18. Part III - Cour D'amours: Circa mea pectora
19. Part III - Cour D'amours: Si puer cum puellula
20. Part III - Cour D'amours: Veni, veni, venias
21. Part III - Cour D'amours: In trutina
22. Part III - Cour D'amours: Tempus est iocundum
23. Part III - Cour D'amours: Dulcissime
24. Blanziflor Et Helena: Ave formosissima
25. Fortuna Imperatrix Mundi: O Fortuna

Performers:
Atlanta Symphony Orchestra & Chorus
Conducted by Donald Runnicles

Norman Mackenzie - Direcror of Choruses
Hei-Kyung Hong - soprano
Stanford Olsen - tenor
Earle Patriarco - baritone
Gwinnett Young Sisters

Exact Audio Copy V0.99 prebeta 5 from 4. May 2009

EAC extraction logfile from 23. January 2010, 13:23

Atlanta Symphony Orchestra and Chorus, Conducted by Donald Runnicles / Orff: Carmina Burana

Used drive : SONY DVD RW DW-Q58A Adapter: 1 ID: 1

Read mode : Secure
Utilize accurate stream : Yes
Defeat audio cache : Yes
Make use of C2 pointers : No

Read offset correction : 6
Overread into Lead-In and Lead-Out : No
Fill up missing offset samples with silence : Yes
Delete leading and trailing silent blocks : No
Null samples used in CRC calculations : Yes
Used interface : Installed external ASPI interface

Used output format : Internal WAV Routines
Sample format : 44.100 Hz; 16 Bit; Stereo


TOC of the extracted CD

Track | Start | Length | Start sector | End sector
––––––––––––––––––––––––––––-
1 | 0:00.00 | 2:26.30 | 0 | 10979
2 | 2:26.30 | 2:33.07 | 10980 | 22461
3 | 4:59.37 | 4:05.15 | 22462 | 40851
4 | 9:04.52 | 2:20.38 | 40852 | 51389
5 | 11:25.15 | 2:35.07 | 51390 | 63021
6 | 14:00.22 | 3:21.08 | 63022 | 78104
7 | 17:21.30 | 1:39.52 | 78105 | 85581
8 | 19:01.07 | 3:45.03 | 85582 | 102459
9 | 22:46.10 | 5:15.67 | 102460 | 126151
10 | 28:02.02 | 0:56.58 | 126152 | 130409
11 | 28:58.60 | 2:10.50 | 130410 | 140209
12 | 31:09.35 | 3:28.72 | 140210 | 155881
13 | 34:38.32 | 1:22.03 | 155882 | 162034
14 | 36:00.35 | 3:04.62 | 162035 | 175896
15 | 39:05.22 | 3:09.63 | 175897 | 190134
16 | 42:15.10 | 2:17.47 | 190135 | 200456
17 | 44:32.57 | 1:47.63 | 200457 | 208544
18 | 46:20.45 | 1:51.72 | 208545 | 216941
19 | 48:12.42 | 0:51.25 | 216942 | 220791
20 | 49:03.67 | 0:57.10 | 220792 | 225076
21 | 50:01.02 | 1:57.50 | 225077 | 233901
22 | 51:58.52 | 2:19.18 | 233902 | 244344
23 | 54:17.70 | 0:48.10 | 244345 | 247954
24 | 55:06.05 | 1:57.50 | 247955 | 256779
25 | 57:03.55 | 2:36.67 | 256780 | 268546


Range status and errors

Selected range

Filename I:\Carmina Burana_SACD CD Layer\Atlanta Symphony Orchestra and Chorus, Conducted by Donald Runnicles - Orff Carmina Burana.wav

Peak level 100.0 %
Range quality 99.9 %
Copy CRC 1EF0D63C
Copy OK

No errors occurred


AccurateRip summary

Track 1 accurately ripped (confidence 5) [4F23114D]
Track 2 accurately ripped (confidence 5) [786B1FA1]
Track 3 accurately ripped (confidence 5) [791A4568]
Track 4 accurately ripped (confidence 5) [0E02CEDF]
Track 5 accurately ripped (confidence 5) [49C2A5FA]
Track 6 accurately ripped (confidence 5) [408C4293]
Track 7 accurately ripped (confidence 5) [E02C6DF8]
Track 8 accurately ripped (confidence 5) [4D2BF2C9]
Track 9 accurately ripped (confidence 5) [4B366976]
Track 10 accurately ripped (confidence 5) [9511F19E]
Track 11 accurately ripped (confidence 5) [3ECDDFC3]
Track 12 accurately ripped (confidence 5) [D3EC422E]
Track 13 accurately ripped (confidence 5) [449A5070]
Track 14 accurately ripped (confidence 5) [7B4D83E9]
Track 15 accurately ripped (confidence 5) [056FB703]
Track 16 accurately ripped (confidence 5) [0D70448B]
Track 17 accurately ripped (confidence 5) [193A373F]
Track 18 accurately ripped (confidence 5) [D4892CAF]
Track 19 accurately ripped (confidence 5) [2260C065]
Track 20 accurately ripped (confidence 5) [A121C20C]
Track 21 accurately ripped (confidence 5) [9D97DA8C]
Track 22 accurately ripped (confidence 5) [E95EFB0F]
Track 23 accurately ripped (confidence 5) [DE5279E6]
Track 24 accurately ripped (confidence 5) [1A132684]
Track 25 accurately ripped (confidence 5) [C77D5DE0]

All tracks accurately ripped

End of status report

[CUETools log; Date: 19.08.2017 21:34:37; Version: 2.1.5]
[CTDB TOCID: xA1BrvfFDHGwZpJv3h8JGd5tIC0-] found.
Track | CTDB Status
1 | (37/37) Accurately ripped
2 | (37/37) Accurately ripped
3 | (37/37) Accurately ripped
4 | (37/37) Accurately ripped
5 | (37/37) Accurately ripped
6 | (36/37) Accurately ripped
7 | (36/37) Accurately ripped
8 | (36/37) Accurately ripped
9 | (37/37) Accurately ripped
10 | (36/37) Accurately ripped
11 | (37/37) Accurately ripped
12 | (36/37) Accurately ripped
13 | (37/37) Accurately ripped
14 | (37/37) Accurately ripped
15 | (37/37) Accurately ripped
16 | (36/37) Accurately ripped
17 | (36/37) Accurately ripped
18 | (36/37) Accurately ripped
19 | (37/37) Accurately ripped
20 | (37/37) Accurately ripped
21 | (36/37) Accurately ripped
22 | (37/37) Accurately ripped
23 | (36/37) Accurately ripped
24 | (37/37) Accurately ripped
25 | (36/37) Accurately ripped
[AccurateRip ID: 003ae1e4-040cae04-5b0dfc19] found.
Track [ CRC | V2 ] Status
01 [4f23114d|56be8ac5] (14+12/70) Accurately ripped
02 [786b1fa1|de8e426b] (14+12/70) Accurately ripped
03 [791a4568|d3b2aa8a] (14+12/70) Accurately ripped
04 [0e02cedf|f309deac] (14+12/70) Accurately ripped
05 [49c2a5fa|24970f26] (14+12/70) Accurately ripped
06 [408c4293|c8f8e275] (14+12/70) Accurately ripped
07 [e02c6df8|e2399704] (14+12/70) Accurately ripped
08 [4d2bf2c9|78ecc7a2] (14+12/70) Accurately ripped
09 [4b366976|995bfff1] (14+12/70) Accurately ripped
10 [9511f19e|1166e17c] (14+12/70) Accurately ripped
11 [3ecddfc3|2b35bd3d] (14+12/70) Accurately ripped
12 [d3ec422e|7f320fdf] (14+12/70) Accurately ripped
13 [449a5070|bda9719c] (14+12/70) Accurately ripped
14 [7b4d83e9|30791e41] (14+12/69) Accurately ripped
15 [056fb703|524b5347] (14+12/70) Accurately ripped
16 [0d70448b|cfb42e18] (14+12/70) Accurately ripped
17 [193a373f|9e43f799] (14+12/70) Accurately ripped
18 [d4892caf|5b5026dc] (14+12/69) Accurately ripped
19 [2260c065|d2cdf57f] (14+12/70) Accurately ripped
20 [a121c20c|9e373d46] (14+12/70) Accurately ripped
21 [9d97da8c|f03a1efb] (14+12/70) Accurately ripped
22 [e95efb0f|220d71b9] (14+12/70) Accurately ripped
23 [de5279e6|fc3fd96b] (14+12/70) Accurately ripped
24 [1a132684|6568812c] (14+12/70) Accurately ripped
25 [c77d5de0|b4a647c9] (14+12/69) Accurately ripped
Offsetted by -1382:
01 [5a5a196e] (09/70) Accurately ripped
02 [6a9c722f] (09/70) Accurately ripped
03 [b11eab06] (09/70) Accurately ripped
04 [4057731c] (09/70) Accurately ripped
05 [465c13f9] (09/70) Accurately ripped
06 [fa23bab4] (09/70) Accurately ripped
07 [4fff63b1] (09/70) Accurately ripped
08 [29831bb4] (09/70) Accurately ripped
09 [527430b5] (09/70) Accurately ripped
10 [358bc78a] (09/70) Accurately ripped
11 [b1b66d1d] (09/70) Accurately ripped
12 [f6c7f0ea] (09/70) Accurately ripped
13 [8db0e51c] (09/70) Accurately ripped
14 [ac453e94] (09/69) Accurately ripped
15 [9b678e0f] (09/70) Accurately ripped
16 [9c74f8fc] (09/70) Accurately ripped
17 [919aceb8] (09/70) Accurately ripped
18 [9378087c] (09/69) Accurately ripped
19 [4c58ce20] (09/70) Accurately ripped
20 [3e616d61] (09/70) Accurately ripped
21 [baf2f133] (09/70) Accurately ripped
22 [e9c93439] (09/70) Accurately ripped
23 [3bdab457] (09/70) Accurately ripped
24 [69817af7] (09/70) Accurately ripped
25 [6332bb66] (08/69) Accurately ripped
Offsetted by -1233:
01 [8bc33521] (09/70) Accurately ripped
02 [34e0c6be] (09/70) Accurately ripped
03 [afc3beea] (09/70) Accurately ripped
04 [15d242a3] (09/70) Accurately ripped
05 [fcc8994d] (09/70) Accurately ripped
06 [3eb18f65] (09/70) Accurately ripped
07 [6f94b8ec] (09/70) Accurately ripped
08 [d93f2acf] (09/70) Accurately ripped
09 [ada89632] (09/70) Accurately ripped
10 [48344b71] (09/70) Accurately ripped
11 [9a163d4f] (09/70) Accurately ripped
12 [98168187] (09/70) Accurately ripped
13 [0f9de517] (09/70) Accurately ripped
14 [2cb3e4a5] (09/69) Accurately ripped
15 [9f0c1b70] (09/70) Accurately ripped
16 [c3ea4b43] (09/70) Accurately ripped
17 [84647de3] (09/70) Accurately ripped
18 [85fcfbe1] (09/69) Accurately ripped
19 [d844456e] (09/70) Accurately ripped
20 [7153f891] (09/70) Accurately ripped
21 [4deea502] (09/70) Accurately ripped
22 [779b689c] (09/70) Accurately ripped
23 [e4d7faf5] (09/70) Accurately ripped
24 [40a97d91] (09/70) Accurately ripped
25 [76dc6ce9] (09/69) Accurately ripped
Offsetted by -345:
01 [29da9a62] (00/70) No match (V2 was not tested)
02 [6a24bd96] (00/70) No match (V2 was not tested)
03 [a7027ee4] (00/70) No match (V2 was not tested)
04 [29356c48] (00/70) No match (V2 was not tested)
05 [66bdac3d] (00/70) No match (V2 was not tested)
06 [aa572eaa] (00/70) No match (V2 was not tested)
07 [e0bc80b5] (00/70) No match (V2 was not tested)
08 [3083d037] (00/70) No match (V2 was not tested)
09 [260939a9] (00/70) No match (V2 was not tested)
10 [d3ebab81] (00/70) No match (V2 was not tested)
11 [64586e9f] (00/70) No match (V2 was not tested)
12 [482008b5] (00/70) No match (V2 was not tested)
13 [534a3b84] (00/70) No match (V2 was not tested)
14 [733c9510] (00/69) No match (V2 was not tested)
15 [c02039be] (00/70) No match (V2 was not tested)
16 [d610586b] (00/70) No match (V2 was not tested)
17 [8c1ca03d] (00/70) No match (V2 was not tested)
18 [b707f6b0] (00/69) No match (V2 was not tested)
19 [e4c120d7] (00/70) No match (V2 was not tested)
20 [3e5c66dc] (00/70) No match (V2 was not tested)
21 [bd5b2b99] (00/70) No match (V2 was not tested)
22 [e862a666] (00/70) No match (V2 was not tested)
23 [d08c6961] (00/70) No match (V2 was not tested)
24 [817c724a] (00/70) No match (V2 was not tested)
25 [bf96d380] (00/69) No match (V2 was not tested)

Track Peak [ CRC32 ] [W/O NULL] [ LOG ]
– 100,0 [1EF0D63C] [2C7623FA] CRC32
01 100,0 [3F66BE48] [428665E6]
02 74,4 [99FE6D25] [FE457C09]
03 15,8 [C88E3E39] [2349466A]
04 15,2 [7ABAC4D6] [A3C2161C]
05 83,8 [75004BE2] [F53CF824]
06 96,6 [DCF668D4] [3CDEB207]
07 37,0 [C2E46B7E] [BD680394]
08 23,3 [FF4D7A88] [BF9C1ACB]
09 86,9 [545E2DAE] [E911D355]
10 100,0 [82F836D9] [1715764B]
11 67,5 [7C33AF71] [0EEF34F0]
12 44,5 [8EE088DD] [C4E15DE5]
13 100,0 [3BD0BE07] [88D23EF5]
14 100,0 [5443984D] [CECB6005]
15 12,6 [4DA7E5E4] [8640F344]
16 13,8 [AE85567A] [7310026E]
17 10,4 [84635938] [49A8B9B3]
18 63,7 [8CDC6C26] [401A8DA4]
19 31,0 [7BEC4761] [48E0464D]
20 61,7 [40B705B7] [3BD15861]
21 12,6 [3D3EAE92] [68592186]
22 99,9 [0DB47C39] [598DA392]
23 22,0 [81521DED] [9E189587]
24 100,0 [9C2F2141] [F14032DF]
25 100,0 [821A405F] [1B212A26]

Thanks to the Original ripper (unknown)!

Download: