Subcategories

Atomic Rooster - Resurrection (2001) [3CD Box Set, Akarma AK 167] Re-up

Posted By: v3122
Atomic Rooster - Resurrection (2001) [3CD Box Set, Akarma AK 167] Re-up

Atomic Rooster - Resurrection (2001) [3CD Box Set, Akarma AK 167]
Rrogressive/Art Rock | EAC Rip | Flac(Image) + Cue + Log | MP3 CBR 320Kbps | Box Art -> 53 Mb
Covers Included | Akarma Records | AK 167/1~3 | ~1139 + 415 Mb

This boxset contains first three albums of the band ("Atomic Rooster", "Death Walks Behind You" and "In Hearing Of"). Also includes bonus tracks, demos, outtakes and live tracks,booklet with lyrics, bio, discography and photos.

Atomic Rooster - Resurrection (2001) [3CD Box Set, Akarma AK 167] Re-up

Atomic Rooster:

Formed: 1969, England
Disbanded: 1982
Genres: Rock
Representative Albums: "Resurrection", "The Best of Atomic Rooster", "Atomic Rooster"
Representative Songs: "The Devil's Answer", "Tomorrow Night", "Death Walks Behind You"

Biography:

Atomic Rooster was a British progressive-rock group formed in 1969 with an original lineup of Vincent Crane (organ), Nick Graham (bass), and Carl Palmer (drums). Their debut album, Atomic Rooster, hit number 49 in the U.K. in June 1970, after which Graham and Palmer left the group. Crane maintained the name and recruited guitarist/singer John Cann and drummer Paul Hammond for the second album, Death Walks Behind You, which hit number 12 in the U.K., where it featured the number 11 single "Tomorrow Night," and number 90 in the U.S. Pete French of Cactus assisted on the third album, In Hearing Of, which featured the number-four U.K. single "The Devil's Answer" and reached number 18 in England and number 167 in America. Then the group split up again, and again Crane assembled a new Atomic Rooster, this time featuring singer Chris Farlowe, guitarist Steve Bolton, bassist Bill Smith, and drummer Rick Parnell. Made in England reached number 149 in the U.S. in 1972, but the group had split again by 1974. Crane fronted lineups of Atomic Rooster into the '80s, before taking up with Dexys Midnight Runners in 1983. In 1989, he committed suicide.

~ William Ruhlmann, Rovi

–––––––––––––––––––––––––––––-

Atomic Rooster - Resurrection (2001) [3CD Box Set, Akarma AK 167] Re-up

CD1: Atomic Rooster - Atomic RoOoster (1970)
Rrogressive/Art Rock | EAC Rip | Flac(Image) + Cue + Log | MP3 CBR 320Kbps
Covers Included | Akarma Records | AK 167/1 | ~369 + 132 Mb

Atomic Rooster - Resurrection (2001) [3CD Box Set, Akarma AK 167] Re-up

Tracklist:

1. Friday the 13th (Crane) - 3:31
2. And So to Bed (Crane) - 4:11
3. Broken Wings (Grun/Jerome) - 5:46
4. Before Tomorrow (Crane) - 5:50
5. Banstead (Crane/Graham/Palmer) - 3:33
6. S.L.Y. (Crane) - 4:56
7. Winter (Crane) - 6:59
8. Decline and Fall (Crane/Graham/Palmer) - 5:48

Bonus Tracks:

9. Play the Game (DuCann) - 4:46
10. VUG (Crane) – 4:34
11. Devil’s Answer – (DuCann) – 4:00

Exact Audio Copy V0.99 prebeta 5 from 4. May 2009

EAC extraction logfile from 17. April 2010, 11:14

Atomic Rooster / Atomic RoOoster 1970

Used drive : HL-DT-STDVDRAM GH20NS15 Adapter: 2 ID: 0

Read mode : Secure
Utilize accurate stream : Yes
Defeat audio cache : Yes
Make use of C2 pointers : No

Read offset correction : 667
Overread into Lead-In and Lead-Out : No
Fill up missing offset samples with silence : Yes
Delete leading and trailing silent blocks : No
Null samples used in CRC calculations : Yes
Used interface : Installed external ASPI interface

Used output format : User Defined Encoder
Selected bitrate : 1024 kBit/s
Quality : High
Add ID3 tag : No
Command line compressor : C:\Program Files (x86)\Exact Audio Copy\FLAC\FLAC.EXE
Additional command line options : -8 -A tukey(0.25) -A gauss(0.1875) -b 4096 -V -T "artist=%a" -T "title=%t" -T "album=%g" -T "date=%y" -T "tracknumber=%n" -T "genre=%m" %s –sector-align


TOC of the extracted CD

Track | Start | Length | Start sector | End sector
––––––––––––––––––––––––––––-
1 | 0:00.00 | 3:33.42 | 0 | 16016
2 | 3:33.42 | 4:13.28 | 16017 | 35019
3 | 7:46.70 | 5:48.17 | 35020 | 61136
4 | 13:35.12 | 5:52.48 | 61137 | 87584
5 | 19:27.60 | 3:35.72 | 87585 | 103781
6 | 23:03.57 | 4:58.58 | 103782 | 126189
7 | 28:02.40 | 7:01.05 | 126190 | 157769
8 | 35:03.45 | 5:50.35 | 157770 | 184054
9 | 40:54.05 | 4:48.37 | 184055 | 205691
10 | 45:42.42 | 4:35.70 | 205692 | 226386
11 | 50:18.37 | 4:00.68 | 226387 | 244454


Range status and errors

Selected range

Filename D:\Atomic Rooster\Atomic Rooster 2001 - Ressurection (Box Set)\Disc 1 - Atomic Roooster (1970)\Atomic Rooster - Atomic RoOoster 1970.wav

Peak level 100.0 %
Range quality 100.0 %
Copy CRC 53C71C35
Copy OK

No errors occurred


AccurateRip summary

Track 1 not present in database
Track 2 not present in database
Track 3 not present in database
Track 4 not present in database
Track 5 not present in database
Track 6 not present in database
Track 7 not present in database
Track 8 not present in database
Track 9 not present in database
Track 10 not present in database
Track 11 not present in database

None of the tracks are present in the AccurateRip database

End of status report

AUDIOCHECKER v2.0 beta (build 457) - by Dester - opdester@freemail.hu
~~~~~~~~~~~~~~~~~~~~~~~~~~~~~~~~~~
-=== DO NOT EDIT THIS FILE! ===-

Path: …\Disc 1 - Atomic Roooster (1970)

1 -=- Atomic Rooster - Atomic RoOoster 1970.flac -=- CDDA (99%)

107810724

[Verification date: 17.09.2010 10:20:39]
[Disc ID: 0016189a-00c22a92-900cbb0b]
Disk not present in database.

Track [ CRC32 ] [W/O NULL] [ LOG ]
– [53C71C35] [DE841A26] CRC32
01 [52AEBA8E] [612E9E37]
02 [BD2AFC9A] [844CD854]
03 [04BB1830] [726F3F7B]
04 [F15F5D5E] [7DF3DBDA]
05 [F7F131F6] [2D096AB8]
06 [D59AB8E2] [319AC4D0]
07 [2A195A6B] [0614F370]
08 [9824B8D9] [5E04F336]
09 [A4E3A7DB] [427F336A]
10 [C897C634] [578D65C2]
11 [4D18F55E] [122B1EED]

Atomic Rooster - Resurrection (2001) [3CD Box Set, Akarma AK 167] Re-up

–––––––––––––––––––––––––––––-

Atomic Rooster - Resurrection (2001) [3CD Box Set, Akarma AK 167] Re-up

CD2: Atomic Rooster - Death Walks Behind You (1970)
Rrogressive/Art Rock | EAC Rip | Flac(Image) + Cue + Log | MP3 CBR 320Kbps
Covers Included | Akarma Records | AK 167/2 | ~314 + 111 Mb

Atomic Rooster - Resurrection (2001) [3CD Box Set, Akarma AK 167] Re-up

Tracklist:

1. Death Walks Behind You (Cann/Crane) - 7:23
2. Vug (Crane) - 5:01
3. Tomorrow Night (Crane) - 3:58
4. Seven Streets (Cann) - 6:42
5. Sleeping for Years (DuCann) - 5:27
6. I Can't Take No More (Cann) - 3:32
7. Nobody Else (Crane) - 5:00
8. Gershatzer (Crane) - 7:57

Exact Audio Copy V0.99 prebeta 5 from 4. May 2009

EAC extraction logfile from 17. April 2010, 11:39

Atomic Rooster / Death Walks Behind You 1970

Used drive : HL-DT-STDVDRAM GH20NS15 Adapter: 2 ID: 0

Read mode : Secure
Utilize accurate stream : Yes
Defeat audio cache : Yes
Make use of C2 pointers : No

Read offset correction : 667
Overread into Lead-In and Lead-Out : No
Fill up missing offset samples with silence : Yes
Delete leading and trailing silent blocks : No
Null samples used in CRC calculations : Yes
Used interface : Installed external ASPI interface

Used output format : User Defined Encoder
Selected bitrate : 1024 kBit/s
Quality : High
Add ID3 tag : No
Command line compressor : C:\Program Files (x86)\Exact Audio Copy\FLAC\FLAC.EXE
Additional command line options : -8 -A tukey(0.25) -A gauss(0.1875) -b 4096 -V -T "artist=%a" -T "title=%t" -T "album=%g" -T "date=%y" -T "tracknumber=%n" -T "genre=%m" %s –sector-align


TOC of the extracted CD

Track | Start | Length | Start sector | End sector
––––––––––––––––––––––––––––-
1 | 0:00.00 | 7:25.10 | 0 | 33384
2 | 7:25.10 | 5:02.35 | 33385 | 56069
3 | 12:27.45 | 4:02.07 | 56070 | 74226
4 | 16:29.52 | 6:46.68 | 74227 | 104744
5 | 23:16.45 | 5:29.67 | 104745 | 129486
6 | 28:46.37 | 3:36.33 | 129487 | 145719
7 | 32:22.70 | 5:03.32 | 145720 | 168476
8 | 37:26.27 | 7:59.03 | 168477 | 204404


Range status and errors

Selected range

Filename D:\Atomic Rooster\Atomic Rooster 2001 - Ressurection (Box Set)\Disc 2 - Death Walks Behind You (1970)\Atomic Rooster - Death Walks Behind You 1970.wav

Peak level 100.0 %
Range quality 100.0 %
Copy CRC 3889D6E7
Copy OK

No errors occurred


AccurateRip summary

Track 1 not present in database
Track 2 not present in database
Track 3 not present in database
Track 4 not present in database
Track 5 not present in database
Track 6 not present in database
Track 7 not present in database
Track 8 not present in database

None of the tracks are present in the AccurateRip database

End of status report

AUDIOCHECKER v2.0 beta (build 457) - by Dester - opdester@freemail.hu
~~~~~~~~~~~~~~~~~~~~~~~~~~~~~~~~~~
-=== DO NOT EDIT THIS FILE! ===-

Path: …\Disc 2 - Death Walks Behind You (1970)

1 -=- Atomic Rooster - Death Walks Behind You 1970.flac -=- CDDA (100%)

163753652

[Verification date: 17.09.2010 10:21:34]
[Disc ID: 000dfc24-005c29e5-810aa508]
Disk not present in database.

Track [ CRC32 ] [W/O NULL] [ LOG ]
– [3889D6E7] [6848AA63] CRC32
01 [753955AD] [27130523]
02 [2737022E] [25FD634E]
03 [607255E4] [CAF9F3B9]
04 [49114F30] [BB130BE8]
05 [7F93588B] [D688F61D]
06 [474272C9] [568CEBBA]
07 [67E8A082] [67BB1E90]
08 [0F8B9AB5] [1FCBEFC2]

Atomic Rooster - Resurrection (2001) [3CD Box Set, Akarma AK 167] Re-up

–––––––––––––––––––––––––––––-

Atomic Rooster - Resurrection (2001) [3CD Box Set, Akarma AK 167] Re-up

Atomic Rooster - In Hearing Of… (1971)
Rrogressive/Art Rock | EAC Rip | Flac(Image) + Cue + Log | MP3 CBR 320Kbps
Covers Included | Akarma Records | AK 167/3 | ~455 + 172 Mb

Atomic Rooster - Resurrection (2001) [3CD Box Set, Akarma AK 167] Re-up

Tracklist:

1. Breakthrough (Crane/Darnell) - 6:20
2. Break the Ice (Cann/DuCann) - 5:01
3. Decision/Indecision (Crane/Darnell) - 3:51
4. A Spoonful of Bromide Helps the Pulse Rate (Crane) - 4:41
5. Black Snake (Crane/Darnell) - 6:00
6. Head in the Sky (Cann) - 5:40
7. The Rock (Crane) - 4:33
8. The Price (Crane/Darnell) - 5:17

Bonus Tracks:

9. Devil's Answer - 3:27
10. Breakthrough (Crane/Parnell) - 6:10
11. Stand By Me (Crane) - 4:57
12. People You Can’t Trust (Crane) – 4:29
13. All In Satan’s Name (Crane/Parnell) –3:56
14. Devil’s Answer (DuCann) – 5:39

Exact Audio Copy V0.99 prebeta 5 from 4. May 2009

EAC extraction logfile from 17. April 2010, 14:42

Atomic Rooster / In Hearing Of 1971

Used drive : HL-DT-STDVDRAM GH20NS15 Adapter: 2 ID: 0

Read mode : Secure
Utilize accurate stream : Yes
Defeat audio cache : Yes
Make use of C2 pointers : No

Read offset correction : 667
Overread into Lead-In and Lead-Out : No
Fill up missing offset samples with silence : Yes
Delete leading and trailing silent blocks : No
Null samples used in CRC calculations : Yes
Used interface : Installed external ASPI interface

Used output format : User Defined Encoder
Selected bitrate : 1024 kBit/s
Quality : High
Add ID3 tag : No
Command line compressor : C:\Program Files (x86)\Exact Audio Copy\FLAC\FLAC.EXE
Additional command line options : -8 -A tukey(0.25) -A gauss(0.1875) -b 4096 -V -T "artist=%a" -T "title=%t" -T "album=%g" -T "date=%y" -T "tracknumber=%n" -T "genre=%m" %s –sector-align


TOC of the extracted CD

Track | Start | Length | Start sector | End sector
––––––––––––––––––––––––––––-
1 | 0:00.00 | 6:20.37 | 0 | 28536
2 | 6:20.37 | 5:03.30 | 28537 | 51291
3 | 11:23.67 | 3:53.23 | 51292 | 68789
4 | 15:17.15 | 4:41.55 | 68790 | 89919
5 | 19:58.70 | 6:02.37 | 89920 | 117106
6 | 26:01.32 | 5:42.19 | 117107 | 142775
7 | 31:43.51 | 4:35.08 | 142776 | 163408
8 | 36:18.59 | 5:19.39 | 163409 | 187372
9 | 41:38.23 | 3:31.03 | 187373 | 203200
10 | 45:09.26 | 6:11.65 | 203201 | 231090
11 | 51:21.16 | 4:59.18 | 231091 | 253533
12 | 56:20.34 | 4:31.20 | 253534 | 273878
13 | 60:51.54 | 3:57.60 | 273879 | 291713
14 | 64:49.39 | 5:49.70 | 291714 | 317958


Range status and errors

Selected range

Filename D:\Atomic Rooster\Atomic Rooster 2001 - Ressurection (Box Set)\Disc 3 - In Hearing Of… (1971)\Atomic Rooster - In Hearing Of 1971.wav

Peak level 100.0 %
Range quality 100.0 %
Copy CRC CD52A481
Copy OK

No errors occurred


AccurateRip summary

Track 1 not present in database
Track 2 not present in database
Track 3 not present in database
Track 4 not present in database
Track 5 not present in database
Track 6 not present in database
Track 7 not present in database
Track 8 not present in database
Track 9 not present in database
Track 10 not present in database
Track 11 not present in database
Track 12 not present in database
Track 13 not present in database
Track 14 not present in database

None of the tracks are present in the AccurateRip database

End of status report

AUDIOCHECKER v2.0 beta (build 457) - by Dester - opdester@freemail.hu
~~~~~~~~~~~~~~~~~~~~~~~~~~~~~~~~~~
-=== DO NOT EDIT THIS FILE! ===-

Path: …\Disc 3 - In Hearing Of… (1971)

1 -=- Atomic Rooster - In Hearing Of 1971.flac -=- CDDA (100%)

104011028

[Verification date: 17.09.2010 10:22:13]
[Disc ID: 0024ef66-018790c9-b7108f0e]
Disk not present in database.

Track [ CRC32 ] [W/O NULL] [ LOG ]
– [CD52A481] [BABFBC16] CRC32
01 [4818B0B4] [8F47AFEB]
02 [95DA87D8] [462145AB]
03 [3232F650] [EAB14B1F]
04 [2F4C4B40] [ED7CC16E]
05 [983E43A4] [86D5554E]
06 [56AD56E8] [FBE61A11]
07 [78FA9A33] [DB4E2381]
08 [071201D6] [66BA084F]
09 [EF68462E] [F733A4A5]
10 [FD316EB5] [A3C5DEC6]
11 [ABF49944] [38105F1B]
12 [5A458BDB] [AB918051]
13 [2BAD18D2] [5C487811]
14 [25D1D5A8] [5A4C2A94]

Atomic Rooster - Resurrection (2001) [3CD Box Set, Akarma AK 167] Re-up

All thanks go to Doggman Pigg
Download Atomic Rooster - Resurrection (2001):