Subcategories

Avatar - Feathers & Flesh (2016) {Deluxe Edition, CD+DVD Digipak}

Posted By: popsakov
Avatar - Feathers & Flesh (2016) {Deluxe Edition, CD+DVD Digipak}

Avatar - Feathers & Flesh (2016)
EAC Rip | FLAC (Img) + Cue + Log ~ 487 Mb | MP3 CBR320 ~ 187 Mb
DVD5 | ISO | MPEG-2, 720x480 (16:9), 29.970 fps, VBR ~ 5000 Kbps | DD 2.0, 192 Kbps
Scans Included (JPG, 300 dpi) | RAR 5% Recovery
Melodic Death Metal, Groove Metal, Heavy Metal | Another Century #888985314112

Hailing from Gothenburg, Sweden the AVATAR lads grew up in the eye of a storm of local musicians made up of metal greats and legends who conquered the world and redrew the map of heavy metal on a monthly basis. This was the measuring stick, and the group have proudly taken on the challenge ever since. The band released Black Waltz in 2012 and found their voice in the madness and started to truly forge their own path in the music they were making. In 2016, Avatar are releasing their latest endeavor Feathers & Flesh, and the promise that's given is that nothing will be the same ever again.

Vocalist Johannes Eckerström declares: We've made a concept album. It's a fable about an owl who goes to war to stop the sun from rising. It's a tragic story of someone ultimately being set up to fail. She will learn many lessons and encounter many other creatures with ideas of their own. In the end, however, one must ask if something was learned at all. The album was recorded in Germany, Finland and Sweden in December 2015 with producer extraordinaire Sylvia Massy (System of a Down, Tool, Red Hot Chili Peppers) at the wheel. The music is as always rooted in the extreme, with plenty of melodic sensibility and a lust for experimentation. The end result is a modern metal album with all the ruthlessness and power one could ask for handled with a loving songwriter's hand, inspired by The Beatles and Queen.
~ Amazon

Avatar - Feathers & Flesh (2016) {Deluxe Edition, CD+DVD Digipak}

Formed by two like musical souls who had realized that their band was holding them back, Avatar was born when John Alfredsen and Jonas Jarlsby decided that their then current positions in Lost Soul were going nowhere, left and regrouped under their new moniker. Eventually, Alfredsen and Jarlsby would be introduced to Johannes Eckerström, and the core of Avatar would be in place. To round out the membership and roster, Henrik Sandelin and Simon Andersson joined the fold in 2003 – just in time to record the band's debut demo, Personal Observations. While gigging like mad to promote the band's first calling card, Avatar stepped back into the studio to record their debut EP, 2004's 4 Reasons to Die. Following the EP's release, Avatar was given the opportunity to take their sound outside their native Sweden for the first time since the band's 2001 inception. They next entered the studio to work on a debut full-length, and, during the recording process scored a deal with Gain Records. That album, Thoughts of No Tomorrow, was released in 2006, and was followed by two European tours, one with Impaled Nazarene, the other with Evergrey. Their busy year was rounded out with two shows alongside original Iron Maiden vocalist Paul Di'Anno. 2007 was to be equally momentous for Avatar. They started off the year as the opening act for major metal act Stone Sour, and finished it off with a new album in the shops. Schlacht, released in October of that year, was followed by a support slot on the 2008 Obituary tour. 2009 saw the release of the group's eponymous third studio album, and the next two years found the band hitting the tour circuit hard, including their first ever US jaunt. 2012's well-received Black Waltz peaked at the number 25 slot in their native Sweden, and 2014's Hail the Apocalypse became the first Avatar outing to crack the Billboard 200. In 2016 the band issued their sixth studio long player, Feathers & Flesh, which was a conceptual piece about an owl who declares war on the world.
~ Chris True, All Music

Avatar - Feathers & Flesh (2016) {Deluxe Edition, CD+DVD Digipak}


***************

Avatar - Feathers & Flesh (2016) {Deluxe Edition, CD+DVD Digipak}

Avatar - Feathers & Flesh (2016) {Deluxe Edition, CD+DVD Digipak}

Track List CD:

01. Regret [02:02]
02. House of eternal hunt [04:59]
03. The eagle has landed [05:02]
04. New land [04:32]
05. Tooth, beak & claw [04:26]
06. For the swarm [01:55]
07. Fiddler s farewell [04:58]
08. One more hill [04:14]
09. Black waters [05:39]
10. Night never ending [03:33]
11. Pray the sun away [05:31]
12. When the snow lies red [05:17]
13. Raven wine [04:37]
14. Sky burial [06:55]
15. I ve got something in my front pocket for you [01:18]
16. Det Är Alldeles Försent (It's Far Too Late) [03:09]

Exact Audio Copy V1.1 from 23. June 2015

EAC extraction logfile from 25. May 2016, 21:50

Avatar / Feathers & Flesh

Used drive : PIONEER BD-RW BDR-209D Adapter: 0 ID: 5

Read mode : Secure
Utilize accurate stream : Yes
Defeat audio cache : Yes
Make use of C2 pointers : No

Read offset correction : 667
Overread into Lead-In and Lead-Out : No
Fill up missing offset samples with silence : Yes
Delete leading and trailing silent blocks : No
Null samples used in CRC calculations : Yes
Used interface : Installed external ASPI interface

Used output format : User Defined Encoder
Selected bitrate : 768 kBit/s
Quality : High
Add ID3 tag : No
Command line compressor : C:\Program Files (x86)\Exact Audio Copy\FLAC\FLAC.EXE
Additional command line options : -6 -V -T "ARTIST=%artist%" -T "TITLE=%title%" -T "ALBUM=%albumtitle%" -T "DATE=%year%" -T "TRACKNUMBER=%tracknr%" -T "GENRE=%genre%" -T "COMMENT=%comment%" -T "BAND=%albuminterpret%" -T "ALBUMARTIST=%albuminterpret%" -T "COMPOSER=%composer%" %haslyrics%–tag-from-file=LYRICS="%lyricsfile%"%haslyrics% -T "DISCNUMBER=%cdnumber%" -T "TOTALDISCS=%totalcds%" -T "TOTALTRACKS=%numtracks%" %hascover%–picture="%coverfile%"%hascover% %source% -o %dest%


TOC of the extracted CD

Track | Start | Length | Start sector | End sector
––––––––––––––––––––––––––––-
1 | 0:00.00 | 2:01.24 | 0 | 9098
2 | 2:01.24 | 4:58.59 | 9099 | 31507
3 | 7:00.08 | 5:01.51 | 31508 | 54133
4 | 12:01.59 | 4:31.24 | 54134 | 74482
5 | 16:33.08 | 4:25.15 | 74483 | 94372
6 | 20:58.23 | 1:54.16 | 94373 | 102938
7 | 22:52.39 | 4:57.41 | 102939 | 125254
8 | 27:50.05 | 4:13.14 | 125255 | 144243
9 | 32:03.19 | 5:38.60 | 144244 | 169653
10 | 37:42.04 | 3:32.36 | 169654 | 185589
11 | 41:14.40 | 5:30.25 | 185590 | 210364
12 | 46:44.65 | 5:16.26 | 210365 | 234090
13 | 52:01.16 | 4:36.74 | 234091 | 254864
14 | 56:38.15 | 6:54.25 | 254865 | 285939
15 | 63:32.40 | 1:17.13 | 285940 | 291727
16 | 64:49.53 | 3:08.42 | 291728 | 305869


Range status and errors

Selected range

Filename E:\MUSIC\Avatar - Feathers & Flesh.wav

Peak level 100.0 %
Extraction speed 8.4 X
Range quality 99.9 %
Test CRC A783E449
Copy CRC A783E449
Copy OK

No errors occurred


AccurateRip summary

Track 1 not present in database
Track 2 not present in database
Track 3 not present in database
Track 4 not present in database
Track 5 not present in database
Track 6 not present in database
Track 7 not present in database
Track 8 not present in database
Track 9 not present in database
Track 10 not present in database
Track 11 not present in database
Track 12 not present in database
Track 13 not present in database
Track 14 not present in database
Track 15 not present in database
Track 16 not present in database

None of the tracks are present in the AccurateRip database

End of status report

==== Log checksum 1E51DC9BCD9947F7A709A44CED2E29B705EBAD699FEA7FA9FF4E1454BC7EF0A2 ====

foobar2000 1.2.6 / Dynamic Range Meter 1.1.1
log date: 2016-05-26 11:14:54

––––––––––––––––––––––––––––––––––––––––
Analyzed: Avatar / Feathers & Flesh
––––––––––––––––––––––––––––––––––––––––

DR Peak RMS Duration Track
––––––––––––––––––––––––––––––––––––––––
DR7 -0.19 dB -10.64 dB 2:01 01-Regret
DR7 -0.16 dB -8.90 dB 4:59 02-House of eternal hunt
DR7 -0.14 dB -9.17 dB 5:02 03-The eagle has landed
DR7 -0.21 dB -9.75 dB 4:31 04-New land
DR7 -0.20 dB -8.17 dB 4:25 05-Tooth, beak & claw
DR6 -0.29 dB -7.92 dB 1:54 06-For the swarm
DR9 -0.26 dB -12.54 dB 4:58 07-Fiddler s farewell
DR7 -0.19 dB -8.28 dB 4:13 08-One more hill
DR7 0.00 dB -9.77 dB 5:39 09-Black waters
DR7 -0.10 dB -8.38 dB 3:32 10-Night never ending
DR7 -0.17 dB -8.55 dB 5:30 11-Pray the sun away
DR7 -0.17 dB -8.17 dB 5:16 12-When the snow lies red
DR7 -0.16 dB -9.10 dB 4:37 13-Raven wine
DR11 -0.56 dB -15.68 dB 6:54 14-Sky burial
DR8 -0.24 dB -9.40 dB 1:17 15-I ve got something in my front pocket for you
DR7 -0.25 dB -8.55 dB 3:09 16-Det r alldeles frsent
––––––––––––––––––––––––––––––––––––––––

Number of tracks: 16
Official DR value: DR7

Samplerate: 44100 Hz
Channels: 2
Bits per sample: 16
Bitrate: 907 kbps
Codec: FLAC
================================================================================

[CUETools log; Date: 26.05.2016 11:14:36; Version: 2.1.5]
[CTDB TOCID: NL9NisGyU6ZQ4y_dANrxpkhLBLc-] found.
Track | CTDB Status
1 | (10/10) Accurately ripped
2 | (10/10) Accurately ripped
3 | (10/10) Accurately ripped
4 | (10/10) Accurately ripped
5 | (10/10) Accurately ripped
6 | (10/10) Accurately ripped
7 | (10/10) Accurately ripped
8 | (10/10) Accurately ripped
9 | (10/10) Accurately ripped
10 | (10/10) Accurately ripped
11 | (10/10) Accurately ripped
12 | (10/10) Accurately ripped
13 | (10/10) Accurately ripped
14 | (10/10) Accurately ripped
15 | (10/10) Accurately ripped
16 | (10/10) Accurately ripped
[AccurateRip ID: 0027473a-01dde3b2-d20fee10] disk not present in database.

Track Peak [ CRC32 ] [W/O NULL] [ LOG ]
– 100,0 [A783E449] [335959F1] CRC32
01 97,8 [58060BAB] [0C22D1D9]
02 98,2 [6707D42D] [FB7AAD41]
03 98,3 [6404926E] [4A07FB2B]
04 97,5 [26ADCE60] [B1FCCF4C]
05 97,7 [B4A470D9] [9AE2CFE8]
06 96,7 [8BDC070B] [D924EC9C]
07 97,0 [52354ED4] [AE4CFB06]
08 97,8 [F380D5EB] [9A4360C2]
09 100,0 [1CB48D54] [CC08D54D]
10 98,8 [5D2285CF] [29106EC5]
11 98,0 [B1415169] [1811A02E]
12 98,0 [621F8A1A] [AD2A116E]
13 98,2 [D163AD5B] [44BAA4EE]
14 93,7 [FFFE6DDF] [5CEA5078]
15 97,2 [5001EFDD] [1EFE864E]
16 97,1 [C69A2E03] [C975295F]

Avatar - Feathers & Flesh (2016) {Deluxe Edition, CD+DVD Digipak}

Track List Bonus Live DVD - Wacken 2015:

01. Intro
02. Hail the apocalypse
03. Let it burn
04. Get in line
05. Bloody angel
06. Vultures fly
07. Paint me red
08. Smells like a freakshow

General
Complete name : I:\VIDEO_TS\VTS_01_1.VOB
Format : MPEG-PS
File size : 1 024 MiB
Duration : 26mn 59s
Overall bit rate mode : Variable
Overall bit rate : 5 303 Kbps

Video
ID : 224 (0xE0)
Format : MPEG Video
Format version : Version 2
Format profile : Main@Main
Format settings, BVOP : Yes
Format settings, Matrix : Default
Format settings, GOP : M=3, N=15
Duration : 26mn 59s
Bit rate mode : Variable
Bit rate : 5 006 Kbps
Maximum bit rate : 7 000 Kbps
Width : 720 pixels
Height : 480 pixels
Display aspect ratio : 16:9
Frame rate : 29.970 fps
Standard : NTSC
Color space : YUV
Chroma subsampling : 4:2:0
Bit depth : 8 bits
Scan type : Progressive
Compression mode : Lossy
Bits/(Pixel*Frame) : 0.483
Time code of first frame : 00:00:00;00
Time code source : Group of pictures header
GOP, Open/Closed : Open
Stream size : 967 MiB (94%)
GOP, Open/Closed of first frame : Closed

Audio
ID : 189 (0xBD)-128 (0x80)
Format : AC-3
Format/Info : Audio Coding 3
Mode extension : CM (complete main)
Format settings, Endianness : Big
Muxing mode : DVD-Video
Duration : 26mn 59s
Bit rate mode : Constant
Bit rate : 192 Kbps
Channel(s) : 2 channels
Channel positions : Front: L R
Sampling rate : 48.0 KHz
Bit depth : 16 bits
Compression mode : Lossy
Stream size : 37.1 MiB (4%)

Menu

General
Complete name : I:\VIDEO_TS\VTS_01_2.VOB
Format : MPEG-PS
File size : 578 MiB
Duration : 15mn 18s
Overall bit rate mode : Variable
Overall bit rate : 5 276 Kbps

Video
ID : 224 (0xE0)
Format : MPEG Video
Format version : Version 2
Format profile : Main@Main
Format settings, BVOP : Yes
Format settings, Matrix : Default
Format settings, GOP : M=3, N=15
Duration : 15mn 18s
Bit rate mode : Variable
Bit rate : 4 979 Kbps
Maximum bit rate : 7 000 Kbps
Width : 720 pixels
Height : 480 pixels
Display aspect ratio : 16:9
Frame rate : 29.970 fps
Standard : NTSC
Color space : YUV
Chroma subsampling : 4:2:0
Bit depth : 8 bits
Scan type : Progressive
Compression mode : Lossy
Bits/(Pixel*Frame) : 0.481
Time code of first frame : 00:27:00;05
Time code source : Group of pictures header
GOP, Open/Closed : Open
Stream size : 545 MiB (94%)

Audio
ID : 189 (0xBD)-128 (0x80)
Format : AC-3
Format/Info : Audio Coding 3
Mode extension : CM (complete main)
Format settings, Endianness : Big
Muxing mode : DVD-Video
Duration : 15mn 18s
Bit rate mode : Constant
Bit rate : 192 Kbps
Channel(s) : 2 channels
Channel positions : Front: L R
Sampling rate : 48.0 KHz
Bit depth : 16 bits
Compression mode : Lossy
Delay relative to video : -569ms
Stream size : 21.0 MiB (4%)

Menu

Avatar - Feathers & Flesh (2016) {Deluxe Edition, CD+DVD Digipak}

Avatar - Feathers & Flesh (2016) {Deluxe Edition, CD+DVD Digipak}

Avatar - Feathers & Flesh (2016) {Deluxe Edition, CD+DVD Digipak}

Avatar - Feathers & Flesh (2016) {Deluxe Edition, CD+DVD Digipak}

Avatar - Feathers & Flesh (2016) {Deluxe Edition, CD+DVD Digipak}

Avatar - Feathers & Flesh (2016) {Deluxe Edition, CD+DVD Digipak}

Avatar - Feathers & Flesh (2016) {Deluxe Edition, CD+DVD Digipak}

Avatar - Feathers & Flesh (2016) {Deluxe Edition, CD+DVD Digipak}

All thanks go to RD

Visit my blog!

Download: