Subcategories
Please register here if you want to download anything!

If domain in your address bar is different from the list below
PLEASE LEAVE THAT SITE IMMEDIATELY
❗IT'S A DANGEROUS FAKE❗



Spicy Magazines for Men! ;-)

Avenger - Prayers Of Steel (1985) [2017, 2CD, Remastered]

Posted By: v3122
Avenger - Prayers Of Steel (1985) [2017, 2CD, Remastered]

Avenger - Prayers Of Steel (1985)
EAC | Flac(Image) + Cue + Log & MP3 CBR 320Kbps
Dr. Bones, LB17C0004 | ~ 878 or 290 Mb | Artwork(jpg) -> 46 Mb
Heavy Metal / Speed Metal

Prayers of Steel is the name of the only full-length album released by the German heavy metal band Avenger in 1985, before they changed their name to Rage. The only other release that followed under the name Avenger was the EP Depraved to Black (1985 also). The German label GUN Records reissued the album on CD in 1995, including the track of the EP…

~ wiki
Avenger - Prayers Of Steel (1985) [2017, 2CD, Remastered]

Avenger - Prayers Of Steel (1985):

Avenger - Prayers Of Steel (1985) [2017, 2CD, Remastered]

Tracklist CD1:

Prayers Of Steel
1. Battlefield
2. South Cross Union
3. Prayers Of Steel
4. Halloween
5. Faster Than Hell
6. Adoration
7. Rise Of The Creature
8. Sword Made Of Steel
9. Bloodlust
10. Assorted By Satan

Depraved To Black (EP)
11. Down To The Bone
12. Depraved To Black
13. Prayers Of Steel (Live)
14. Faster Than Hell (Live)

Exact Audio Copy V1.3 from 2. September 2016

EAC extraction logfile from 16. August 2017, 17:55

Avenger / Prayers of Steel (2017 - CD1)

Used drive : ATAPI iHAS122 W Adapter: 2 ID: 0

Read mode : Secure
Utilize accurate stream : Yes
Defeat audio cache : Yes
Make use of C2 pointers : No

Read offset correction : 48
Overread into Lead-In and Lead-Out : No
Fill up missing offset samples with silence : Yes
Delete leading and trailing silent blocks : No
Null samples used in CRC calculations : Yes
Used interface : Installed external ASPI interface

Used output format : User Defined Encoder
Selected bitrate : 1024 kBit/s
Quality : High
Add ID3 tag : No
Command line compressor : C:\Program Files\FLAC\flac.exe
Additional command line options : -V -8 -T "Date=%year%" -T "Genre=%genre%" -T"COMMENT=Ripped by Ilijan - ilko" -8 -V %source%


TOC of the extracted CD

Track | Start | Length | Start sector | End sector
––––––––––––––––––––––––––––-
1 | 0:00.00 | 2:47.70 | 0 | 12594
2 | 2:47.70 | 3:38.52 | 12595 | 28996
3 | 6:26.47 | 6:12.25 | 28997 | 56921
4 | 12:38.72 | 3:51.33 | 56922 | 74279
5 | 16:30.30 | 3:19.50 | 74280 | 89254
6 | 19:50.05 | 3:32.17 | 89255 | 105171
7 | 23:22.22 | 5:26.45 | 105172 | 129666
8 | 28:48.67 | 5:06.18 | 129667 | 152634
9 | 33:55.10 | 4:49.67 | 152635 | 174376
10 | 38:45.02 | 4:06.33 | 174377 | 192859
11 | 42:51.35 | 5:03.32 | 192860 | 215616
12 | 47:54.67 | 4:38.55 | 215617 | 236521
13 | 52:33.47 | 4:58.05 | 236522 | 258876
14 | 57:31.52 | 2:47.05 | 258877 | 271406


Range status and errors

Selected range

Filename D:\ilko\Avenger - Prayers of Steel (2017 - CD1).wav

Peak level 100.0 %
Extraction speed 4.0 X
Range quality 100.0 %
Test CRC 0FB788ED
Copy CRC 0FB788ED
Copy OK

No errors occurred


AccurateRip summary

Track 1 not present in database
Track 2 not present in database
Track 3 not present in database
Track 4 not present in database
Track 5 not present in database
Track 6 not present in database
Track 7 not present in database
Track 8 not present in database
Track 9 not present in database
Track 10 not present in database
Track 11 not present in database
Track 12 not present in database
Track 13 not present in database
Track 14 not present in database

None of the tracks are present in the AccurateRip database

End of status report

–– CUETools DB Plugin V2.1.6

[CTDB TOCID: QXzmEewCuX6OFCl829cQM16RuEw-] found
Submit result: QXzmEewCuX6OFCl829cQM16RuEw- has been confirmed
Track | CTDB Status
1 | (1/1) Accurately ripped
2 | (1/1) Accurately ripped
3 | (1/1) Accurately ripped
4 | (1/1) Accurately ripped
5 | (1/1) Accurately ripped
6 | (1/1) Accurately ripped
7 | (1/1) Accurately ripped
8 | (1/1) Accurately ripped
9 | (1/1) Accurately ripped
10 | (1/1) Accurately ripped
11 | (1/1) Accurately ripped
12 | (1/1) Accurately ripped
13 | (1/1) Accurately ripped
14 | (1/1) Accurately ripped


==== Log checksum 0CFCBDA7937FED299A11A0021DF068FDC253AFD8F3E0E25E9BC8F76F870E694F ====


[CUETools log; Date: 01.12.2018 14:38:37; Version: 2.1.4]
[CTDB TOCID: QXzmEewCuX6OFCl829cQM16RuEw-] found.
Track | CTDB Status
1 | (15/15) Accurately ripped
2 | (15/15) Accurately ripped
3 | (15/15) Accurately ripped
4 | (15/15) Accurately ripped
5 | (15/15) Accurately ripped
6 | (15/15) Accurately ripped
7 | (15/15) Accurately ripped
8 | (15/15) Accurately ripped
9 | (15/15) Accurately ripped
10 | (15/15) Accurately ripped
11 | (15/15) Accurately ripped
12 | (15/15) Accurately ripped
13 | (15/15) Accurately ripped
14 | (15/15) Accurately ripped
[AccurateRip ID: 001e814f-0149d8da-c60e220e] found.
Track [ CRC | V2 ] Status
01 [b80c226e|0d44e457] (0+2/2) Accurately ripped
02 [21a2baea|d78ec478] (0+2/2) Accurately ripped
03 [00b39ea3|6181c6f0] (0+2/2) Accurately ripped
04 [ea2c7d44|6242d705] (0+2/2) Accurately ripped
05 [54610cd4|4f10a1d0] (0+2/2) Accurately ripped
06 [e5688bea|fb9f2ebd] (0+2/2) Accurately ripped
07 [9b86193f|6cf1dfbb] (0+2/2) Accurately ripped
08 [d989666a|3cbfc54e] (0+2/2) Accurately ripped
09 [626a7bbb|74014b08] (0+2/2) Accurately ripped
10 [7f05515f|400b2eea] (0+2/2) Accurately ripped
11 [6dd0e210|cd858291] (0+2/2) Accurately ripped
12 [95bf7e78|648d9d2a] (0+2/2) Accurately ripped
13 [c1a88a1e|c146f108] (0+2/2) Accurately ripped
14 [b65d2be2|20c5d9a0] (0+2/2) Accurately ripped

Track Peak [ CRC32 ] [W/O NULL] [ LOG ]
– 100,0 [0FB788ED] [B19A308B] CRC32
01 99,8 [9FF43F97] [A680F5E8]
02 99,8 [260007CA] [2C58F7E3]
03 99,8 [66901D9C] [57B3271D]
04 99,8 [F06E9D64] [A123E4DA]
05 99,8 [44985B28] [7B8DF51D]
06 99,8 [D37B7CA3] [0FB60B4A]
07 99,8 [1B1D247A] [836A7330]
08 99,8 [890E8DDD] [8A90866D]
09 99,8 [3D9CF839] [D7A641AA]
10 99,8 [913884E3] [454FEA4D]
11 100,0 [CE750C56] [5AD7BDF3]
12 100,0 [5D0BB465] [BF3902D4]
13 99,8 [22E75470] [A1435B27]
14 100,0 [02F31A0E] [E89604A8]


Avenger - Prayers Of Steel (1985) [2017, 2CD, Remastered]

Tracklist CD2:

1st Demo, Feb. 1984
1. Faster Than Hell
2. Adoration
3. Destination Day
4. Assorted By Satan

2nd Demo, July 1984
5. Battlefield
6. South Cross Union
7. Adoration
8. Bloodlust

Ouutakes studio rehearsal, July 1984
9. Halloween
10. Rise Of The Creature
11. Prayers Of Steel
12. Sword Made Of Steel
13. Seven Gates Of Hell (Previously unreleased)
14. Faster Than Hell
15. Victim Of Rock (Previously unreleased)
16. Assorted By Satan

Exact Audio Copy V1.3 from 2. September 2016

EAC extraction logfile from 16. August 2017, 18:32

Avenger / Prayers Of Steel (CD2)

Used drive : ATAPI iHAS122 W Adapter: 2 ID: 0

Read mode : Secure
Utilize accurate stream : Yes
Defeat audio cache : Yes
Make use of C2 pointers : No

Read offset correction : 48
Overread into Lead-In and Lead-Out : No
Fill up missing offset samples with silence : Yes
Delete leading and trailing silent blocks : No
Null samples used in CRC calculations : Yes
Used interface : Installed external ASPI interface

Used output format : User Defined Encoder
Selected bitrate : 1024 kBit/s
Quality : High
Add ID3 tag : No
Command line compressor : C:\Program Files\FLAC\flac.exe
Additional command line options : -V -8 -T "Date=%year%" -T "Genre=%genre%" -T"COMMENT=Ripped by Ilijan - ilko" -8 -V %source%


TOC of the extracted CD

Track | Start | Length | Start sector | End sector
––––––––––––––––––––––––––––-
1 | 0:00.00 | 3:03.46 | 0 | 13770
2 | 3:03.46 | 3:56.72 | 13771 | 31542
3 | 7:00.43 | 4:44.58 | 31543 | 52900
4 | 11:45.26 | 4:38.30 | 52901 | 73780
5 | 16:23.56 | 2:48.13 | 73781 | 86393
6 | 19:11.69 | 3:27.28 | 86394 | 101946
7 | 22:39.22 | 3:52.43 | 101947 | 119389
8 | 26:31.65 | 4:28.00 | 119390 | 139489
9 | 30:59.65 | 3:51.18 | 139490 | 156832
10 | 34:51.08 | 5:26.13 | 156833 | 181295
11 | 40:17.21 | 4:41.18 | 181296 | 202388
12 | 44:58.39 | 4:13.54 | 202389 | 221417
13 | 49:12.18 | 3:20.74 | 221418 | 236491
14 | 52:33.17 | 3:07.19 | 236492 | 250535
15 | 55:40.36 | 3:03.54 | 250536 | 264314
16 | 58:44.15 | 3:29.60 | 264315 | 280049


Range status and errors

Selected range

Filename D:\ilko\Avenger - Prayers Of Steel (CD2).wav

Peak level 99.6 %
Extraction speed 3.9 X
Range quality 99.9 %
Test CRC DC57AFED
Copy CRC DC57AFED
Copy OK

No errors occurred


AccurateRip summary

Track 1 not present in database
Track 2 not present in database
Track 3 not present in database
Track 4 not present in database
Track 5 not present in database
Track 6 not present in database
Track 7 not present in database
Track 8 not present in database
Track 9 not present in database
Track 10 not present in database
Track 11 not present in database
Track 12 not present in database
Track 13 not present in database
Track 14 not present in database
Track 15 not present in database
Track 16 not present in database

None of the tracks are present in the AccurateRip database

End of status report

–– CUETools DB Plugin V2.1.6

[CTDB TOCID: tR.Y92V8nwJIhKnMpaxz0iCKkxI-] found
Submit result: tR.Y92V8nwJIhKnMpaxz0iCKkxI- has been confirmed
Track | CTDB Status
1 | (1/1) Accurately ripped
2 | (1/1) Accurately ripped
3 | (1/1) Accurately ripped
4 | (1/1) Accurately ripped
5 | (1/1) Accurately ripped
6 | (1/1) Accurately ripped
7 | (1/1) Accurately ripped
8 | (1/1) Accurately ripped
9 | (1/1) Accurately ripped
10 | (1/1) Accurately ripped
11 | (1/1) Accurately ripped
12 | (1/1) Accurately ripped
13 | (1/1) Accurately ripped
14 | (1/1) Accurately ripped
15 | (1/1) Accurately ripped
16 | (1/1) Accurately ripped


==== Log checksum 604E6BA422D347B0977AF716838AE7559AFFC7511581F9BD3E4D4155897348F9 ====


[CUETools log; Date: 01.12.2018 14:38:51; Version: 2.1.4]
[CTDB TOCID: tR.Y92V8nwJIhKnMpaxz0iCKkxI-] found.
Track | CTDB Status
1 | (12/12) Accurately ripped
2 | (12/12) Accurately ripped
3 | (12/12) Accurately ripped
4 | (12/12) Accurately ripped
5 | (12/12) Accurately ripped
6 | (12/12) Accurately ripped
7 | (12/12) Accurately ripped
8 | (12/12) Accurately ripped
9 | (12/12) Accurately ripped
10 | (12/12) Accurately ripped
11 | (12/12) Accurately ripped
12 | (12/12) Accurately ripped
13 | (12/12) Accurately ripped
14 | (12/12) Accurately ripped
15 | (12/12) Accurately ripped
16 | (12/12) Accurately ripped
[AccurateRip ID: 0024d002-01bba12e-d80e9610] found.
Track [ CRC | V2 ] Status
01 [970fcbf4|bef436f5] (0+1/1) Accurately ripped
02 [2b216678|093613ff] (0+1/1) Accurately ripped
03 [603a5a7b|cb4d19cf] (0+1/1) Accurately ripped
04 [05628562|1ff4d92a] (0+1/1) Accurately ripped
05 [ffe46816|b80bd743] (0+1/1) Accurately ripped
06 [d048bdce|c3ca5b96] (0+1/1) Accurately ripped
07 [9ee41080|24785dd3] (0+1/1) Accurately ripped
08 [9fa48513|e9e26884] (0+1/1) Accurately ripped
09 [265f3c05|32b3e650] (0+1/1) Accurately ripped
10 [924599c9|e75e7160] (0+1/1) Accurately ripped
11 [0287f7cf|7b5954e2] (0+1/1) Accurately ripped
12 [1f506c72|323485b2] (0+1/1) Accurately ripped
13 [194cadb4|ae24fa67] (0+1/1) Accurately ripped
14 [424f7945|5339f56d] (0+1/1) Accurately ripped
15 [c073d083|0d887daf] (0+1/1) Accurately ripped
16 [1c41954b|16967fa5] (0+1/1) Accurately ripped

Track Peak [ CRC32 ] [W/O NULL] [ LOG ]
– 99,6 [DC57AFED] [A90C5C7D] CRC32
01 87,9 [D77CCF98] [ACADD425]
02 87,9 [6AF9A79D] [14FEA6C2]
03 87,9 [C99575F3] [0E050D3E]
04 87,9 [71436F76] [1EE20B6F]
05 98,6 [8C561D07] [56D129E6]
06 99,6 [DD2BFB56] [5205E77F]
07 96,8 [428942A1] [7F8295D4]
08 96,3 [67EC2C45] [843EC6DE]
09 68,2 [EB74AC44] [40784230]
10 68,2 [7A337295] [A0C8FC32]
11 68,3 [A23FA882] [958E0276]
12 68,2 [CF510B9A] [9443F723]
13 68,3 [A2FFD5A9] [7D2B6D91]
14 68,2 [3816D079] [3695D124]
15 68,2 [AEA610B5] [052DFC1B]
16 68,2 [21CA439E] [1EEFED3C]


Avenger - Prayers Of Steel (1985) [2017, 2CD, Remastered]

All thanks go to ilko

Rage or Rage in my Blog

Download Avenger - Prayers Of Steel (1985):