Subcategories

Ayreon - Ayreon Universe: The Best of Ayreon Live (2018) [2CD, Blu-ray 1080p & BDRip 720p]

Posted By: v3122
Ayreon - Ayreon Universe: The Best of Ayreon Live (2018) [2CD, Blu-ray 1080p & BDRip 720p]

Ayreon - Ayreon Universe: The Best of Ayreon Live (2018)
EAC | Flac(Image) + Cue + Log & MP3 CBR 320Kbps
Mascot Records/Music Theories Recordings, MTR 7552 5 | ~ 893 or 296 Mb | Scans(jpg) -> 32 Mb
Blu-ray: MPEG-4 AVC 1080p, 23,976 fps, 16:9, High Profile 4.1
LPCM 2.0, 48 kHz, 2304 kbps, 24-bit / DTS-HD MA 5.1, 48 kHz, 4647 kbps, 24-bit
BDRip: MKV, 1280x720 (16:9), 23.976 fps | DTS, 6 ch, 1 510 Kbps / FLAC, 2 ch, 1 697 kbps
Progressive Metal, Progressive Rock, Rock Opera | 02:25:03 | ~ 45.97 or 8.39 Gb

Ayreon Universe is the best of Ayreon Live - A unique performance featuring 16 singers, 28 songs, 2+ hour performance, 9000+ fans and a special appearance by Arjen Lucassen, captured by 30 cameras!
It's proof that you should never say 'never'. After creating rock operas in the studio for more than 20 years, prog mastermind Arjen Lucassen, aka Ayreon, finally took his Universe to the stage in September 2017. Three shows sold out within hours after annoucing. 9000+ Fans from all corners of the world flocked to the 013 venue in Tilburg, the Netherlands to see this long-awaited show live.
This unique performance features 16 singers, 28 songs, an 8 piece band and a special appearance by Arjen, lasting over 2 hours. The concert was filmed with 30 cameras and is released on DVD and Blu-ray with 5.1 surround audio, with an extensive list of extras, including a behind-the-scenes documentary with interviews with every singer and musician, and a compilation of the try-out show performed a few weeks earlier.
Two years in the making, Ayreon Universe is a full on rock extravaganza, featuring songs from all Ayreon albums, including 2017's 'The Source', plus a few fan favorites from Star One. An amazing array of singers appeared on stage to bring the Ayreon Universe to life: Floor Jansen (Nightwish), Damian Wilson (Threshold), Hansi Kursch (Blind Guardian), Tommy Karevik (Kamelot), Anneke van Giersbergen (The Gentle Storm), Marco Hietala (Nightwish), Jonas Renkse (Katatonia), Mike Mills (Toehider), Marcela Bovio (Stream of Passion), Irene Jansen, Robert Soeterboek (Star One), John Jaycee Cuijpers (Praying Mantis), Edward Reekers (Kayak), Jay van Feggelen, Maggy Luyten (Nightmare) and Lisette van den Berg (Scarlet Stories).
Ayreon - Ayreon Universe: The Best of Ayreon Live (2018):

Ayreon - Ayreon Universe: The Best of Ayreon Live (2018) [2CD, Blu-ray 1080p & BDRip 720p]

Tracklist CD1:

01. Prologue 03:57
02. Dreamtime 02:32
03. Abbey Of Synn 04:17
04. River Of Time 03:56
05. The Blackboard 01:55
06. The Theory Of Everything 04:38
07. Merlin's Will 03:10
08. Waking Dreams 03:40
09. Dawn Of A Million Souls 05:09
10. Valley Of The Queens 02:50
11. Ride The Comet 03:42
12. Star Of Sirrah 05:56
13. Comatose 02:58
14. Loser 04:42
15. And The Druids Turned To Stone 04:43

Exact Audio Copy V1.1 from 23. June 2015

EAC extraction logfile from 10. April 2018, 13:08

Ayreon / Best Of Ayreon Live CD 1

Used drive : HP DVD Writer 1170d Adapter: 1 ID: 1

Read mode : Secure
Utilize accurate stream : Yes
Defeat audio cache : Yes
Make use of C2 pointers : No

Read offset correction : 6
Overread into Lead-In and Lead-Out : No
Fill up missing offset samples with silence : Yes
Delete leading and trailing silent blocks : No
Null samples used in CRC calculations : Yes
Used interface : Native Win32 interface for Win NT & 2000

Used output format : User Defined Encoder
Selected bitrate : 1024 kBit/s
Quality : High
Add ID3 tag : No
Command line compressor : C:\Program Files (x86)\Exact Audio Copy\Flac\flac.exe
Additional command line options : -V -8 -T "Date=%year%" -T "Genre=%genre%" %source%


TOC of the extracted CD

Track | Start | Length | Start sector | End sector
––––––––––––––––––––––––––––-
1 | 0:00.00 | 3:56.67 | 0 | 17766
2 | 3:56.67 | 2:31.47 | 17767 | 29138
3 | 6:28.39 | 4:16.47 | 29139 | 48385
4 | 10:45.11 | 3:56.14 | 48386 | 66099
5 | 14:41.25 | 1:54.62 | 66100 | 74711
6 | 16:36.12 | 4:38.14 | 74712 | 95575
7 | 21:14.26 | 3:10.29 | 95576 | 109854
8 | 24:24.55 | 3:40.00 | 109855 | 126354
9 | 28:04.55 | 5:08.45 | 126355 | 149499
10 | 33:13.25 | 2:50.15 | 149500 | 162264
11 | 36:03.40 | 3:42.10 | 162265 | 178924
12 | 39:45.50 | 5:56.03 | 178925 | 205627
13 | 45:41.53 | 2:58.06 | 205628 | 218983
14 | 48:39.59 | 4:41.72 | 218984 | 240130
15 | 53:21.56 | 4:42.62 | 240131 | 261342


Range status and errors

Selected range

Filename C:\EAC\ungern666\Ayreon - Best Of Ayreon Live CD 1.wav

Peak level 100.0 %
Extraction speed 7.2 X
Range quality 100.0 %
Copy CRC 3956BF78
Copy OK

No errors occurred


AccurateRip summary

Track 1 accurately ripped (confidence 4) [E3BD1224] (AR v2)
Track 2 accurately ripped (confidence 4) [AF25B791] (AR v2)
Track 3 accurately ripped (confidence 4) [25D24E5E] (AR v2)
Track 4 accurately ripped (confidence 4) [65F5FB50] (AR v2)
Track 5 accurately ripped (confidence 4) [86605C35] (AR v2)
Track 6 accurately ripped (confidence 4) [0CAD0757] (AR v2)
Track 7 accurately ripped (confidence 4) [63834ED7] (AR v2)
Track 8 accurately ripped (confidence 4) [A063CEC4] (AR v2)
Track 9 accurately ripped (confidence 4) [87A3ADE3] (AR v2)
Track 10 accurately ripped (confidence 4) [8E7B8799] (AR v2)
Track 11 accurately ripped (confidence 4) [9BDF3863] (AR v2)
Track 12 accurately ripped (confidence 4) [0A62322B] (AR v2)
Track 13 accurately ripped (confidence 4) [A89ADF81] (AR v2)
Track 14 accurately ripped (confidence 4) [B9CE512C] (AR v2)
Track 15 accurately ripped (confidence 4) [EC5DC93F] (AR v2)

All tracks accurately ripped

End of status report

–– CUETools DB Plugin V2.1.6

[CTDB TOCID: mrOpWniKA7zYWVyy6rwwVCWUXrs-] found
Submit result: mrOpWniKA7zYWVyy6rwwVCWUXrs- has been confirmed
Track | CTDB Status
1 | (69/69) Accurately ripped
2 | (69/69) Accurately ripped
3 | (69/69) Accurately ripped
4 | (69/69) Accurately ripped
5 | (69/69) Accurately ripped
6 | (69/69) Accurately ripped
7 | (69/69) Accurately ripped
8 | (69/69) Accurately ripped
9 | (69/69) Accurately ripped
10 | (69/69) Accurately ripped
11 | (69/69) Accurately ripped
12 | (68/69) Accurately ripped
13 | (69/69) Accurately ripped
14 | (69/69) Accurately ripped
15 | (67/69) Accurately ripped


==== Log checksum 83459D81CEA19EFB7A16673C07374C15D479DAFA9019A6166C4A00FDCDEFE897 ====


[CUETools log; Date: 12.04.2018 8:36:16; Version: 2.1.5]
[CTDB TOCID: mrOpWniKA7zYWVyy6rwwVCWUXrs-] found.
Track | CTDB Status
1 | (71/71) Accurately ripped
2 | (71/71) Accurately ripped
3 | (71/71) Accurately ripped
4 | (71/71) Accurately ripped
5 | (71/71) Accurately ripped
6 | (71/71) Accurately ripped
7 | (71/71) Accurately ripped
8 | (71/71) Accurately ripped
9 | (71/71) Accurately ripped
10 | (71/71) Accurately ripped
11 | (71/71) Accurately ripped
12 | (70/71) Accurately ripped
13 | (71/71) Accurately ripped
14 | (71/71) Accurately ripped
15 | (69/71) Accurately ripped
[AccurateRip ID: 001e489a-015ad40f-ef0d9c0f] found.
Track [ CRC | V2 ] Status
01 [0a7984dc|e3bd1224] (0+4/4) Accurately ripped
02 [5a310b5e|af25b791] (0+4/4) Accurately ripped
03 [f8f95f6a|25d24e5e] (0+4/4) Accurately ripped
04 [3fbd1886|65f5fb50] (0+4/4) Accurately ripped
05 [9b6e42f0|86605c35] (0+4/4) Accurately ripped
06 [2251239f|0cad0757] (0+4/4) Accurately ripped
07 [9f71bd5a|63834ed7] (0+4/4) Accurately ripped
08 [73b19bbc|a063cec4] (0+4/4) Accurately ripped
09 [bbec2da6|87a3ade3] (0+4/4) Accurately ripped
10 [22eee999|8e7b8799] (0+4/4) Accurately ripped
11 [a147bd2f|9bdf3863] (0+4/4) Accurately ripped
12 [d25267af|0a62322b] (0+4/4) Accurately ripped
13 [886045a5|a89adf81] (0+4/4) Accurately ripped
14 [fbab2a50|b9ce512c] (0+4/4) Accurately ripped
15 [bf18ca92|ec5dc93f] (0+4/4) Accurately ripped

Track Peak [ CRC32 ] [W/O NULL] [ LOG ]
– 100,0 [3956BF78] [D049B6A1] CRC32
01 98,2 [744C178B] [0A5E6FD4]
02 97,6 [E4C12AB9] [011DAE85]
03 99,6 [0FD6C14E] [D25FF774]
04 98,4 [90B58F62] [AF8E381B]
05 97,9 [61EB86F2] [68FD0EF6]
06 99,1 [47A0146B] [23FEDD59]
07 99,3 [D322A63E] [17C22F5D]
08 98,9 [662F7AFB] [840E40C1]
09 99,5 [D7E4BE63] [E60C8EC6]
10 97,4 [B5B5A629] [45978C02]
11 100,0 [E6A7EE69] [CA177BDF]
12 98,8 [1A9D7B42] [B0A8F187]
13 97,9 [6BDCFFAF] [7CB3AE67]
14 98,6 [1C17D64F] [64F77B53]
15 99,0 [D085F6D3] [F7460E32]


Ayreon - Ayreon Universe: The Best of Ayreon Live (2018) [2CD, Blu-ray 1080p & BDRip 720p]

Tracklist CD2:

01. The Two Gates 06:01
02. Into The Black Hole 06:11
03. Actual Fantasy 01:25
04. Computer Eyes 04:35
05. Magnetism 04:45
06. Age Of Shadows 04:49
07. Intergalactic Space Crusaders 05:33
08. Collision 03:37
09. Everybody Dies 05:01
10. The Castle Hall 06:31
Encore 1
11. Amazing Flight In Space 06:21
12. Day Eleven: Love 04:05
Encore 2
13. The Eye Of Ra 05:51

Exact Audio Copy V1.1 from 23. June 2015

EAC extraction logfile from 10. April 2018, 13:30

Ayreon / Best Of Ayreon Live CD 2

Used drive : HP DVD Writer 1170d Adapter: 1 ID: 1

Read mode : Secure
Utilize accurate stream : Yes
Defeat audio cache : Yes
Make use of C2 pointers : No

Read offset correction : 6
Overread into Lead-In and Lead-Out : No
Fill up missing offset samples with silence : Yes
Delete leading and trailing silent blocks : No
Null samples used in CRC calculations : Yes
Used interface : Native Win32 interface for Win NT & 2000

Used output format : User Defined Encoder
Selected bitrate : 1024 kBit/s
Quality : High
Add ID3 tag : No
Command line compressor : C:\Program Files (x86)\Exact Audio Copy\Flac\flac.exe
Additional command line options : -V -8 -T "Date=%year%" -T "Genre=%genre%" %source%


TOC of the extracted CD

Track | Start | Length | Start sector | End sector
––––––––––––––––––––––––––––-
1 | 0:00.00 | 6:00.67 | 0 | 27066
2 | 6:00.67 | 6:11.14 | 27067 | 54905
3 | 12:12.06 | 1:25.28 | 54906 | 61308
4 | 13:37.34 | 4:35.20 | 61309 | 81953
5 | 18:12.54 | 4:45.05 | 81954 | 103333
6 | 22:57.59 | 4:48.53 | 103334 | 124986
7 | 27:46.37 | 5:33.02 | 124987 | 149963
8 | 33:19.39 | 3:36.72 | 149964 | 166235
9 | 36:56.36 | 5:01.24 | 166236 | 188834
10 | 41:57.60 | 6:30.62 | 188835 | 218146
11 | 48:28.47 | 6:20.54 | 218147 | 246700
12 | 54:49.26 | 4:04.61 | 246701 | 265061
13 | 58:54.12 | 5:51.29 | 265062 | 291415


Range status and errors

Selected range

Filename C:\EAC\ungern666\Ayreon - Best Of Ayreon Live CD 2.wav

Peak level 99.5 %
Extraction speed 5.8 X
Range quality 99.9 %
Test CRC 2DB6D3D3
Copy CRC 2DB6D3D3
Copy OK

No errors occurred


AccurateRip summary

Track 1 accurately ripped (confidence 2) [A9D352F7] (AR v2)
Track 2 accurately ripped (confidence 2) [F3530689] (AR v2)
Track 3 accurately ripped (confidence 2) [31AAF8D3] (AR v2)
Track 4 accurately ripped (confidence 2) [184E63C6] (AR v2)
Track 5 accurately ripped (confidence 2) [0FF896BF] (AR v2)
Track 6 accurately ripped (confidence 2) [5D26A31A] (AR v2)
Track 7 accurately ripped (confidence 2) [123353F6] (AR v2)
Track 8 accurately ripped (confidence 2) [83C6C977] (AR v2)
Track 9 accurately ripped (confidence 2) [55F01DAB] (AR v2)
Track 10 accurately ripped (confidence 2) [008943F6] (AR v2)
Track 11 accurately ripped (confidence 2) [9195EC8A] (AR v2)
Track 12 accurately ripped (confidence 2) [42B1A8E1] (AR v2)
Track 13 accurately ripped (confidence 2) [CF6C81B0] (AR v2)

All tracks accurately ripped

End of status report

–– CUETools DB Plugin V2.1.6

[CTDB TOCID: BwTpeoH0Qkm8e3CLqNoBwOaoQv4-] found
Submit result: BwTpeoH0Qkm8e3CLqNoBwOaoQv4- has been confirmed
Track | CTDB Status
1 | (64/64) Accurately ripped
2 | (64/64) Accurately ripped
3 | (64/64) Accurately ripped
4 | (64/64) Accurately ripped
5 | (64/64) Accurately ripped
6 | (64/64) Accurately ripped
7 | (64/64) Accurately ripped
8 | (64/64) Accurately ripped
9 | (64/64) Accurately ripped
10 | (64/64) Accurately ripped
11 | (64/64) Accurately ripped
12 | (64/64) Accurately ripped
13 | (63/64) Accurately ripped


==== Log checksum E2FA44CDAF5550FAA02A37FF81429F12AAE0CFE1E64CBA7598AE6AE64175F0FE ====


[CUETools log; Date: 12.04.2018 8:37:11; Version: 2.1.5]
[CTDB TOCID: BwTpeoH0Qkm8e3CLqNoBwOaoQv4-] found.
Track | CTDB Status
1 | (67/67) Accurately ripped
2 | (67/67) Accurately ripped
3 | (67/67) Accurately ripped
4 | (67/67) Accurately ripped
5 | (67/67) Accurately ripped
6 | (67/67) Accurately ripped
7 | (67/67) Accurately ripped
8 | (67/67) Accurately ripped
9 | (67/67) Accurately ripped
10 | (67/67) Accurately ripped
11 | (67/67) Accurately ripped
12 | (67/67) Accurately ripped
13 | (66/67) Accurately ripped
[AccurateRip ID: 001e360e-012eb699-b10f2d0d] found.
Track [ CRC | V2 ] Status
01 [30c38824|a9d352f7] (0+2/2) Accurately ripped
02 [7a63805a|f3530689] (0+2/2) Accurately ripped
03 [af660a9b|31aaf8d3] (0+2/2) Accurately ripped
04 [597ce7c9|184e63c6] (0+2/2) Accurately ripped
05 [c680aa2c|0ff896bf] (0+2/2) Accurately ripped
06 [0c80ca02|5d26a31a] (0+2/2) Accurately ripped
07 [7398c623|123353f6] (0+2/2) Accurately ripped
08 [31704337|83c6c977] (0+2/2) Accurately ripped
09 [1a39392a|55f01dab] (0+2/2) Accurately ripped
10 [f2df9043|008943f6] (0+2/2) Accurately ripped
11 [e4ed98c5|9195ec8a] (0+2/2) Accurately ripped
12 [8d441dec|42b1a8e1] (0+2/2) Accurately ripped
13 [39345ca9|cf6c81b0] (0+2/2) Accurately ripped

Track Peak [ CRC32 ] [W/O NULL] [ LOG ]
– 99,5 [2DB6D3D3] [AB202E09] CRC32
01 99,5 [5ADCBEFC] [1B9FF8CC]
02 99,3 [CE4938FF] [B857A878]
03 97,5 [457D9012] [9B49A94D]
04 98,3 [E34E4D89] [90B26A4E]
05 98,8 [0726FA65] [9B30AFC2]
06 98,7 [C116B0DE] [766779B9]
07 98,8 [EA0F5C1E] [9CAA2899]
08 98,5 [9F68D4AC] [76936D92]
09 98,7 [03FF0D67] [2DCFDC59]
10 98,6 [D9BBCADA] [FEC51E01]
11 99,0 [80404878] [DB566611]
12 99,0 [170BC1B0] [6DBA1F12]
13 99,0 [C01B6889] [CF9FEC79]


TracklistBD & BDRip:

1. Prologue
2. Dreamtime
3. Abbey Of Synn
4. River Of Time
5. The Blackboard
6. The Theory Of Everything
7. Merlin's Will
8. Waking Dreams
9. Dawn Of A Million Souls
10. Valley Of The Queens
11. Ride The Comet
12. Star Of Sirrah
13. Comatose
14. Loser
14. And The Druids Turned To Stone
15. The Two Gates
16. Into The Black Hole
17. Actual Fantasy
18. Computer Eyes
19. Magnetism
20. Age Of Shadows
21. Intergalactic Space Crusaders
22. Collision
23. Everybody Dies
24. The Castle Hall
25. Amazing Flight in Space
26. Day Eleven: Love
27. The Eye Of Ra
+
Behind the scenes, incl. interviews with the singers and musicians [01:24:30]
Compilation of the try-out show [00:17:16]

Disc Title: Ayreon Universe – The Best of Ayreon Live
Disc Size: 47 003 331 732 bytes
Protection: AACS
BD-Java: No
BDInfo: 0.5.8

Notes:

BDINFO HOME:
Cinema Squid
http://www.cinemasquid.com/blu-ray/tools/bdinfo

INCLUDES FORUMS REPORT FOR:
AVS Forum Blu-ray Audio and Video Specifications Thread
http://www.avsforum.com/avs-vb/showthread.php?t=1155731

WARNING: Report is incomplete because: Scan has not been run.

********************
PLAYLIST: 00000.MPLS
********************

<–- BEGIN FORUMS PASTE –->
                                                                                                                Total   Video                                             
Title                                                           Codec   Length  Movie Size      Disc Size       Bitrate Bitrate Main Audio Track                          Secondary Audio Track
-----                                                           ------  ------- --------------  --------------  ------- ------- ------------------                        ---------------------
00000.MPLS                                                      AVC     2:25:03 0               47 003 331 732  0,00    0,00    LPCM 2.0 2304Kbps (48kHz/24-bit)          DTS-HD Master 5.1 (48kHz/24-bit)


DISC INFO:

Disc Title:     Ayreon Universe – The Best of Ayreon Live
Disc Size:      47 003 331 732 bytes
Protection:     AACS
BD-Java:        No
BDInfo:         0.5.8

PLAYLIST REPORT:

Name:                   00000.MPLS
Length:                 2:25:03.277 (h:m:s.ms)
Size:                   0 bytes
Total Bitrate:          0,00 Mbps

VIDEO:

Codec                   Bitrate             Description     
-----                   -------             -----------     
MPEG-4 AVC Video        0 kbps              1080p / 23,976 fps / 16:9 / High Profile 4.1

AUDIO:

Codec                           Language        Bitrate         Description     
-----                           --------        -------         -----------     
LPCM Audio                      English         2304 kbps       2.0 / 48 kHz / 2304 kbps / 24-bit
DTS-HD Master Audio             English         0 kbps          5.1 / 48 kHz / 24-bit (DTS Core: 5.1 / 48 kHz / 1509 kbps / 24-bit)

FILES:

Name            Time In         Length          Size            Total Bitrate   
----            -------         ------          ----            -------------   
00000.M2TS      0:00:00.000     2:25:03.277     0               0               

CHAPTERS:

Number          Time In         Length          Avg Video Rate  Max 1-Sec Rate  Max 1-Sec Time  Max 5-Sec Rate  Max 5-Sec Time  Max 10Sec Rate  Max 10Sec Time  Avg Frame Size  Max Frame Size  Max Frame Time  
------          -------         ------          --------------  --------------  --------------  --------------  --------------  --------------  --------------  --------------  --------------  --------------  
1               0:00:00.000     0:04:48.705     0 kbps          0 kbps          00:00:00.000    0 kbps          00:00:00.000    0 kbps          00:00:00.000    0 bytes         0 bytes         00:00:00.000    
2               0:04:48.705     0:02:35.238     0 kbps          0 kbps          00:00:00.000    0 kbps          00:00:00.000    0 kbps          00:00:00.000    0 bytes         0 bytes         00:00:00.000    
3               0:07:23.943     0:04:17.590     0 kbps          0 kbps          00:00:00.000    0 kbps          00:00:00.000    0 kbps          00:00:00.000    0 bytes         0 bytes         00:00:00.000    
4               0:11:41.534     0:03:56.402     0 kbps          0 kbps          00:00:00.000    0 kbps          00:00:00.000    0 kbps          00:00:00.000    0 bytes         0 bytes         00:00:00.000    
5               0:15:37.936     0:01:53.947     0 kbps          0 kbps          00:00:00.000    0 kbps          00:00:00.000    0 kbps          00:00:00.000    0 bytes         0 bytes         00:00:00.000    
6               0:17:31.884     0:04:38.611     0 kbps          0 kbps          00:00:00.000    0 kbps          00:00:00.000    0 kbps          00:00:00.000    0 bytes         0 bytes         00:00:00.000    
7               0:22:10.495     0:03:08.688     0 kbps          0 kbps          00:00:00.000    0 kbps          00:00:00.000    0 kbps          00:00:00.000    0 bytes         0 bytes         00:00:00.000    
8               0:25:19.184     0:03:42.472     0 kbps          0 kbps          00:00:00.000    0 kbps          00:00:00.000    0 kbps          00:00:00.000    0 bytes         0 bytes         00:00:00.000    
9               0:29:01.656     0:05:07.807     0 kbps          0 kbps          00:00:00.000    0 kbps          00:00:00.000    0 kbps          00:00:00.000    0 bytes         0 bytes         00:00:00.000    
10              0:34:09.464     0:02:48.501     0 kbps          0 kbps          00:00:00.000    0 kbps          00:00:00.000    0 kbps          00:00:00.000    0 bytes         0 bytes         00:00:00.000    
11              0:36:57.965     0:03:43.222     0 kbps          0 kbps          00:00:00.000    0 kbps          00:00:00.000    0 kbps          00:00:00.000    0 bytes         0 bytes         00:00:00.000    
12              0:40:41.188     0:05:53.186     0 kbps          0 kbps          00:00:00.000    0 kbps          00:00:00.000    0 kbps          00:00:00.000    0 bytes         0 bytes         00:00:00.000    
13              0:46:34.374     0:03:01.598     0 kbps          0 kbps          00:00:00.000    0 kbps          00:00:00.000    0 kbps          00:00:00.000    0 bytes         0 bytes         00:00:00.000    
14              0:49:35.973     0:04:41.364     0 kbps          0 kbps          00:00:00.000    0 kbps          00:00:00.000    0 kbps          00:00:00.000    0 bytes         0 bytes         00:00:00.000    
15              0:54:17.337     0:04:42.699     0 kbps          0 kbps          00:00:00.000    0 kbps          00:00:00.000    0 kbps          00:00:00.000    0 bytes         0 bytes         00:00:00.000    
16              0:59:00.036     0:10:28.419     0 kbps          0 kbps          00:00:00.000    0 kbps          00:00:00.000    0 kbps          00:00:00.000    0 bytes         0 bytes         00:00:00.000    
17              1:09:28.455     0:06:09.327     0 kbps          0 kbps          00:00:00.000    0 kbps          00:00:00.000    0 kbps          00:00:00.000    0 bytes         0 bytes         00:00:00.000    
18              1:15:37.783     0:01:26.294     0 kbps          0 kbps          00:00:00.000    0 kbps          00:00:00.000    0 kbps          00:00:00.000    0 bytes         0 bytes         00:00:00.000    
19              1:17:04.077     0:04:34.649     0 kbps          0 kbps          00:00:00.000    0 kbps          00:00:00.000    0 kbps          00:00:00.000    0 bytes         0 bytes         00:00:00.000    
20              1:21:38.727     0:04:46.119     0 kbps          0 kbps          00:00:00.000    0 kbps          00:00:00.000    0 kbps          00:00:00.000    0 bytes         0 bytes         00:00:00.000    
21              1:26:24.846     0:04:47.245     0 kbps          0 kbps          00:00:00.000    0 kbps          00:00:00.000    0 kbps          00:00:00.000    0 bytes         0 bytes         00:00:00.000    
22              1:31:12.091     0:05:34.125     0 kbps          0 kbps          00:00:00.000    0 kbps          00:00:00.000    0 kbps          00:00:00.000    0 bytes         0 bytes         00:00:00.000    
23              1:36:46.217     0:03:36.090     0 kbps          0 kbps          00:00:00.000    0 kbps          00:00:00.000    0 kbps          00:00:00.000    0 bytes         0 bytes         00:00:00.000    
24              1:40:22.307     0:05:00.758     0 kbps          0 kbps          00:00:00.000    0 kbps          00:00:00.000    0 kbps          00:00:00.000    0 bytes         0 bytes         00:00:00.000    
25              1:45:23.066     0:06:36.521     0 kbps          0 kbps          00:00:00.000    0 kbps          00:00:00.000    0 kbps          00:00:00.000    0 bytes         0 bytes         00:00:00.000    
26              1:51:59.587     0:11:10.127     0 kbps          0 kbps          00:00:00.000    0 kbps          00:00:00.000    0 kbps          00:00:00.000    0 bytes         0 bytes         00:00:00.000    
27              2:03:09.715     0:06:13.122     0 kbps          0 kbps          00:00:00.000    0 kbps          00:00:00.000    0 kbps          00:00:00.000    0 bytes         0 bytes         00:00:00.000    
28              2:09:22.838     0:04:20.009     0 kbps          0 kbps          00:00:00.000    0 kbps          00:00:00.000    0 kbps          00:00:00.000    0 bytes         0 bytes         00:00:00.000    
29              2:13:42.848     0:07:23.192     0 kbps          0 kbps          00:00:00.000    0 kbps          00:00:00.000    0 kbps          00:00:00.000    0 bytes         0 bytes         00:00:00.000    
30              2:21:06.040     0:03:56.236     0 kbps          0 kbps          00:00:00.000    0 kbps          00:00:00.000    0 kbps          00:00:00.000    0 bytes         0 bytes         00:00:00.000    
31              2:25:02.276     0:00:01.000     0 kbps          0 kbps          00:00:00.000    0 kbps          00:00:00.000    0 kbps          00:00:00.000    0 bytes         0 bytes         00:00:00.000    

STREAM DIAGNOSTICS:

File            PID             Type            Codec           Language                Seconds                 Bitrate                 Bytes           Packets         
----            ---             ----            -----           --------                --------------          --------------          -------------   -----           
00000.M2TS      4113 (0x1011)   0x1B            AVC                                     0                       0                       0               0               
00000.M2TS      4352 (0x1100)   0x80            LPCM            eng (English)           0                       0                       0               0               
00000.M2TS      4353 (0x1101)   0x86            DTS-HD MA       eng (English)           0                       0                       0               0               

<–– END FORUMS PASTE ––>

QUICK SUMMARY:

Disc Title: Ayreon Universe – The Best of Ayreon Live
Disc Size: 47 003 331 732 bytes
Protection: AACS
BD-Java: No
Playlist: 00000.MPLS
Size: 0 bytes
Length: 2:25:03.277
Total Bitrate: 0,00 Mbps
Video: MPEG-4 AVC Video / 0 kbps / 1080p / 23,976 fps / 16:9 / High Profile 4.1
Audio: English / LPCM Audio / 2.0 / 48 kHz / 2304 kbps / 24-bit
Audio: English / DTS-HD Master Audio / 5.1 / 48 kHz / 24-bit (DTS Core: 5.1 / 48 kHz / 1509 kbps / 24-bit)


********************
PLAYLIST: 00004.MPLS
********************

<–- BEGIN FORUMS PASTE –->
                                                                                                                Total   Video                                             
Title                                                           Codec   Length  Movie Size      Disc Size       Bitrate Bitrate Main Audio Track                          Secondary Audio Track
-----                                                           ------  ------- --------------  --------------  ------- ------- ------------------                        ---------------------
00004.MPLS                                                      AVC     1:24:30 0               47 003 331 732  0,00    0,00    LPCM 2.0 1536Kbps (48kHz/16-bit)          LPCM 2.0 1536Kbps (48kHz/16-bit)


DISC INFO:

Disc Title:     Ayreon Universe – The Best of Ayreon Live
Disc Size:      47 003 331 732 bytes
Protection:     AACS
BD-Java:        No
BDInfo:         0.5.8

PLAYLIST REPORT:

Name:                   00004.MPLS
Length:                 1:24:30.190 (h:m:s.ms)
Size:                   0 bytes
Total Bitrate:          0,00 Mbps

VIDEO:

Codec                   Bitrate             Description     
-----                   -------             -----------     
MPEG-4 AVC Video        0 kbps              1080p / 23,976 fps / 16:9 / High Profile 4.1

AUDIO:

Codec                           Language        Bitrate         Description     
-----                           --------        -------         -----------     
LPCM Audio                      English         1536 kbps       2.0 / 48 kHz / 1536 kbps / 16-bit
LPCM Audio                      English         1536 kbps       2.0 / 48 kHz / 1536 kbps / 16-bit

FILES:

Name            Time In         Length          Size            Total Bitrate   
----            -------         ------          ----            -------------   
00004.M2TS      0:00:00.000     1:24:30.190     0               0               

CHAPTERS:

Number          Time In         Length          Avg Video Rate  Max 1-Sec Rate  Max 1-Sec Time  Max 5-Sec Rate  Max 5-Sec Time  Max 10Sec Rate  Max 10Sec Time  Avg Frame Size  Max Frame Size  Max Frame Time  
------          -------         ------          --------------  --------------  --------------  --------------  --------------  --------------  --------------  --------------  --------------  --------------  
1               0:00:00.000     1:24:30.190     0 kbps          0 kbps          00:00:00.000    0 kbps          00:00:00.000    0 kbps          00:00:00.000    0 bytes         0 bytes         00:00:00.000    

STREAM DIAGNOSTICS:

File            PID             Type            Codec           Language                Seconds                 Bitrate                 Bytes           Packets         
----            ---             ----            -----           --------                --------------          --------------          -------------   -----           
00004.M2TS      4113 (0x1011)   0x1B            AVC                                     0                       0                       0               0               
00004.M2TS      4352 (0x1100)   0x80            LPCM            eng (English)           0                       0                       0               0               
00004.M2TS      4353 (0x1101)   0x80            LPCM            eng (English)           0                       0                       0               0               

<–– END FORUMS PASTE ––>

QUICK SUMMARY:

Disc Title: Ayreon Universe – The Best of Ayreon Live
Disc Size: 47 003 331 732 bytes
Protection: AACS
BD-Java: No
Playlist: 00004.MPLS
Size: 0 bytes
Length: 1:24:30.190
Total Bitrate: 0,00 Mbps
Video: MPEG-4 AVC Video / 0 kbps / 1080p / 23,976 fps / 16:9 / High Profile 4.1
Audio: English / LPCM Audio / 2.0 / 48 kHz / 1536 kbps / 16-bit
Audio: English / LPCM Audio / 2.0 / 48 kHz / 1536 kbps / 16-bit


********************
PLAYLIST: 00003.MPLS
********************

<–- BEGIN FORUMS PASTE –->
                                                                                                                Total   Video                                             
Title                                                           Codec   Length  Movie Size      Disc Size       Bitrate Bitrate Main Audio Track                          Secondary Audio Track
-----                                                           ------  ------- --------------  --------------  ------- ------- ------------------                        ---------------------
00003.MPLS                                                      AVC     0:17:16 0               47 003 331 732  0,00    0,00    LPCM 2.0 2304Kbps (48kHz/24-bit)          LPCM 2.0 2304Kbps (48kHz/24-bit)


DISC INFO:

Disc Title:     Ayreon Universe – The Best of Ayreon Live
Disc Size:      47 003 331 732 bytes
Protection:     AACS
BD-Java:        No
BDInfo:         0.5.8

PLAYLIST REPORT:

Name:                   00003.MPLS
Length:                 0:17:16.577 (h:m:s.ms)
Size:                   0 bytes
Total Bitrate:          0,00 Mbps

VIDEO:

Codec                   Bitrate             Description     
-----                   -------             -----------     
MPEG-4 AVC Video        0 kbps              1080p / 23,976 fps / 16:9 / High Profile 4.1

AUDIO:

Codec                           Language        Bitrate         Description     
-----                           --------        -------         -----------     
LPCM Audio                      English         2304 kbps       2.0 / 48 kHz / 2304 kbps / 24-bit
LPCM Audio                      English         2304 kbps       2.0 / 48 kHz / 2304 kbps / 24-bit

FILES:

Name            Time In         Length          Size            Total Bitrate   
----            -------         ------          ----            -------------   
00003.M2TS      0:00:00.000     0:17:16.577     0               0               

CHAPTERS:

Number          Time In         Length          Avg Video Rate  Max 1-Sec Rate  Max 1-Sec Time  Max 5-Sec Rate  Max 5-Sec Time  Max 10Sec Rate  Max 10Sec Time  Avg Frame Size  Max Frame Size  Max Frame Time  
------          -------         ------          --------------  --------------  --------------  --------------  --------------  --------------  --------------  --------------  --------------  --------------  
1               0:00:00.000     0:17:16.577     0 kbps          0 kbps          00:00:00.000    0 kbps          00:00:00.000    0 kbps          00:00:00.000    0 bytes         0 bytes         00:00:00.000    

STREAM DIAGNOSTICS:

File            PID             Type            Codec           Language                Seconds                 Bitrate                 Bytes           Packets         
----            ---             ----            -----           --------                --------------          --------------          -------------   -----           
00003.M2TS      4113 (0x1011)   0x1B            AVC                                     0                       0                       0               0               
00003.M2TS      4352 (0x1100)   0x80            LPCM            eng (English)           0                       0                       0               0               
00003.M2TS      4353 (0x1101)   0x80            LPCM            eng (English)           0                       0                       0               0               

<–– END FORUMS PASTE ––>

QUICK SUMMARY:

Disc Title: Ayreon Universe – The Best of Ayreon Live
Disc Size: 47 003 331 732 bytes
Protection: AACS
BD-Java: No
Playlist: 00003.MPLS
Size: 0 bytes
Length: 0:17:16.577
Total Bitrate: 0,00 Mbps
Video: MPEG-4 AVC Video / 0 kbps / 1080p / 23,976 fps / 16:9 / High Profile 4.1
Audio: English / LPCM Audio / 2.0 / 48 kHz / 2304 kbps / 24-bit
Audio: English / LPCM Audio / 2.0 / 48 kHz / 2304 kbps / 24-bit


********************
PLAYLIST: 00002.MPLS
********************

<–- BEGIN FORUMS PASTE –->
                                                                                                                Total   Video                                             
Title                                                           Codec   Length  Movie Size      Disc Size       Bitrate Bitrate Main Audio Track                          Secondary Audio Track
-----                                                           ------  ------- --------------  --------------  ------- ------- ------------------                        ---------------------
00002.MPLS                                                      AVC     0:00:27 0               47 003 331 732  0,00    0,00                                              


DISC INFO:

Disc Title:     Ayreon Universe – The Best of Ayreon Live
Disc Size:      47 003 331 732 bytes
Protection:     AACS
BD-Java:        No
BDInfo:         0.5.8

PLAYLIST REPORT:

Name:                   00002.MPLS
Length:                 0:00:27.027 (h:m:s.ms)
Size:                   0 bytes
Total Bitrate:          0,00 Mbps

VIDEO:

Codec                   Bitrate             Description     
-----                   -------             -----------     
MPEG-4 AVC Video        0 kbps              1080p / 23,976 fps / 16:9 / High Profile 4.1

FILES:

Name            Time In         Length          Size            Total Bitrate   
----            -------         ------          ----            -------------   
00005.M2TS      0:00:00.000     0:00:27.027     0               0               

CHAPTERS:

Number          Time In         Length          Avg Video Rate  Max 1-Sec Rate  Max 1-Sec Time  Max 5-Sec Rate  Max 5-Sec Time  Max 10Sec Rate  Max 10Sec Time  Avg Frame Size  Max Frame Size  Max Frame Time  
------          -------         ------          --------------  --------------  --------------  --------------  --------------  --------------  --------------  --------------  --------------  --------------  
1               0:00:00.000     0:00:27.027     0 kbps          0 kbps          00:00:00.000    0 kbps          00:00:00.000    0 kbps          00:00:00.000    0 bytes         0 bytes         00:00:00.000    

STREAM DIAGNOSTICS:

File            PID             Type            Codec           Language                Seconds                 Bitrate                 Bytes           Packets         
----            ---             ----            -----           --------                --------------          --------------          -------------   -----           
00005.M2TS      4113 (0x1011)   0x1B            AVC                                     0                       0                       0               0               

<–– END FORUMS PASTE ––>

QUICK SUMMARY:

Disc Title: Ayreon Universe – The Best of Ayreon Live
Disc Size: 47 003 331 732 bytes
Protection: AACS
BD-Java: No
Playlist: 00002.MPLS
Size: 0 bytes
Length: 0:00:27.027
Total Bitrate: 0,00 Mbps
Video: MPEG-4 AVC Video / 0 kbps / 1080p / 23,976 fps / 16:9 / High Profile 4.1



Ayreon - Ayreon Universe: The Best of Ayreon Live (2018) [2CD, Blu-ray 1080p & BDRip 720p]

Ayreon - Ayreon Universe: The Best of Ayreon Live (2018) [2CD, Blu-ray 1080p & BDRip 720p]

Ayreon - Ayreon Universe: The Best of Ayreon Live (2018) [2CD, Blu-ray 1080p & BDRip 720p]

Ayreon - Ayreon Universe: The Best of Ayreon Live (2018) [2CD, Blu-ray 1080p & BDRip 720p]

Ayreon - Ayreon Universe: The Best of Ayreon Live (2018) [2CD, Blu-ray 1080p & BDRip 720p]

All thanks go to anbelk27

Ayreon or Ayreon in my Blog

Download Ayreon - Ayreon Universe: The Best of Ayreon Live (2018):