Subcategories

Azymuth - Águia Não Come Mosca (1977) [Reissue 2019]

Posted By: gribovar
Azymuth - Águia Não Come Mosca (1977) [Reissue 2019]

Azymuth - Aguia Nao Come Mosca (1977) [Reissue 2019]
EAC Rip | FLAC (tracks+.cue+log) - 245 MB | MP3 CBR 320 kbps (LAME 3.93) - 90 MB | Covers - 20 MB
Genre: Jazz-Funk, Latin Jazz, Fusion | RAR 3% Rec. | Label: Mr Bongo (MRBCD209)

Golden-era, 1977, Brazilian jazz-funk-fusion album from the legendary, Azymuth. Lush Rhodes, soaring synths and fusion guitars from Malheiros and Bertrami combine with the inimitable drum grooves from Ivan “Mamao” Conti that create the signature Azymuth sound. The album moves from mellow soulful moods, into screaming disco-jazz-fusion, samba funk, synth boogie and ends with a tough 160bpm Batucada workout.
Tracklist:
01. Vao Sobre O Horizonte
02. Aguia Nao Come Mosca
03. Despertar
04. Tarde
05. Circo Marimbondo
06. Tamborim Cuica Ganza Berimbau
07. A Presa
08. A Caca
09. Falcon Love Call (Armazém Nº 2)
10. Aguia Negra X Dragao Negro

Total time: 38:16

Exact Audio Copy V1.3 from 2. September 2016

Отчёт EAC об извлечении, выполненном 11. сентября 2020, 15:37

Azymuth / Aguia Nao Come Mosca

Дисковод: ASUS DRW-24D5MT Adapter: 1 ID: 0

Режим чтения : Достоверность
Использование точного потока : Да
Отключение кэша аудио : Да
Использование указателей C2 : Нет

Коррекция смещения при чтении : 6
Способность читать области Lead-in и Lead-out : Нет
Заполнение пропущенных сэмплов тишиной : Да
Удаление блоков с тишиной в начале и конце : Нет
При вычислениях CRC использовались нулевые сэмплы : Да
Интерфейс : Встроенный Win32-интерфейс для Win NT/2000
Обработка зазоров : Добавлено к предыдущему треку

Выходной формат : Пользовательский кодировщик
Выбранный битрейт : 128 kBit/s
Качество : Высокий
Добавление ID3-тега : Нет
Утилита сжатия : C:\Program Files\flac-1.3.2-git-20170314-x64-icl\flac.exe
Дополнительные параметры : -8 -V -T "ARTIST=%artist%" -T "TITLE=%title%" -T "ALBUM=%albumtitle%" -T "DATE=%year%" -T "TRACKNUMBER=%tracknr%" -T "GENRE=%genre%" -T "COMMENT=EAC FLAC -8" %source%


TOC извлечённого CD

Трек | Старт | Длительность | Начальный сектор | Конечный сектор
––––––––––––––––––––––––––––––––––-
1 | 0:00.00 | 3:41.39 | 0 | 16613
2 | 3:41.39 | 3:29.69 | 16614 | 32357
3 | 7:11.33 | 4:56.22 | 32358 | 54579
4 | 12:07.55 | 5:27.04 | 54580 | 79108
5 | 17:34.59 | 2:27.13 | 79109 | 90146
6 | 20:01.72 | 5:03.10 | 90147 | 112881
7 | 25:05.07 | 3:43.59 | 112882 | 129665
8 | 28:48.66 | 3:03.11 | 129666 | 143401
9 | 31:52.02 | 3:52.53 | 143402 | 160854
10 | 35:44.55 | 2:31.73 | 160855 | 172252


Трек 1

Имя файла D:\FLAC EAC\01 Vao Sobre O Horizonte.wav

Длина предзазора 0:00:02.00

Пиковый уровень 96.7 %
Скорость извлечения 4.1 X
Качество трека 100.0 %
CRC теста 8F29AEBB
CRC копии 8F29AEBB
Точное извлечение (достоверность 3) [93C472E5] (AR v2)
Копирование… OK

Трек 2

Имя файла D:\FLAC EAC\02 Aguia Nao Come Mosca.wav

Пиковый уровень 97.7 %
Скорость извлечения 4.5 X
Качество трека 100.0 %
CRC теста 8F698A21
CRC копии 8F698A21
Точное извлечение (достоверность 3) [606EB1CD] (AR v2)
Копирование… OK

Трек 3

Имя файла D:\FLAC EAC\03 Despertar.wav

Длина предзазора 0:00:01.69

Пиковый уровень 97.7 %
Скорость извлечения 5.1 X
Качество трека 100.0 %
CRC теста AE9FA58C
CRC копии AE9FA58C
Точное извлечение (достоверность 3) [C4841DC3] (AR v2)
Копирование… OK

Трек 4

Имя файла D:\FLAC EAC\04 Tarde.wav

Длина предзазора 0:00:00.69

Пиковый уровень 97.7 %
Скорость извлечения 5.6 X
Качество трека 100.0 %
CRC теста 00EFE10C
CRC копии 00EFE10C
Точное извлечение (достоверность 3) [D2B34EF9] (AR v2)
Копирование… OK

Трек 5

Имя файла D:\FLAC EAC\05 Circo Marimbondo.wav

Длина предзазора 0:00:00.69

Пиковый уровень 97.7 %
Скорость извлечения 5.3 X
Качество трека 100.0 %
CRC теста A44241FD
CRC копии A44241FD
Точное извлечение (достоверность 3) [B1E4153A] (AR v2)
Копирование… OK

Трек 6

Имя файла D:\FLAC EAC\06 Tamborim Cuica Ganza Berimbau.wav

Длина предзазора 0:00:00.33

Пиковый уровень 97.7 %
Скорость извлечения 5.6 X
Качество трека 99.9 %
CRC теста A8E81CEE
CRC копии A8E81CEE
Точное извлечение (достоверность 3) [A4D122EC] (AR v2)
Копирование… OK

Трек 7

Имя файла D:\FLAC EAC\07 A Presa.wav

Длина предзазора 0:00:01.69

Пиковый уровень 97.7 %
Скорость извлечения 5.5 X
Качество трека 99.9 %
CRC теста 45835900
CRC копии 45835900
Точное извлечение (достоверность 3) [72ACD093] (AR v2)
Копирование… OK

Трек 8

Имя файла D:\FLAC EAC\08 A Caca.wav

Пиковый уровень 97.7 %
Скорость извлечения 6.3 X
Качество трека 100.0 %
CRC теста 713DA82E
CRC копии 713DA82E
Точное извлечение (достоверность 3) [2E51CECA] (AR v2)
Копирование… OK

Трек 9

Имя файла D:\FLAC EAC\09 Falcon Love Call (Armazem Nº 2).wav

Длина предзазора 0:00:01.69

Пиковый уровень 96.7 %
Скорость извлечения 6.0 X
Качество трека 99.9 %
CRC теста 5ECD57D9
CRC копии 5ECD57D9
Точное извлечение (достоверность 3) [F986E2BC] (AR v2)
Копирование… OK

Трек 10

Имя файла D:\FLAC EAC\10 Aguia Negra X Dragao Negro.wav

Длина предзазора 0:00:00.69

Пиковый уровень 96.9 %
Скорость извлечения 6.5 X
Качество трека 100.0 %
CRC теста F3B8A492
CRC копии F3B8A492
Точное извлечение (достоверность 3) [4CD17465] (AR v2)
Копирование… OK


Все треки извлечены точно

Ошибок не произошло

Конец отчёта

–– CUETools DB Plugin V2.1.6

[CTDB TOCID: stDW_HfpgIEK7o6DR0pPGSk7x48-] found
Submit result: stDW_HfpgIEK7o6DR0pPGSk7x48- has been confirmed
Track | CTDB Status
1 | (15/15) Accurately ripped
2 | (15/15) Accurately ripped
3 | (15/15) Accurately ripped
4 | (15/15) Accurately ripped
5 | (15/15) Accurately ripped
6 | (15/15) Accurately ripped
7 | (15/15) Accurately ripped
8 | (15/15) Accurately ripped
9 | (15/15) Accurately ripped
10 | (15/15) Accurately ripped


==== Контрольная сумма отчёта 15609E3EC76517CEAE57CC4D72C0C6B8B5FD067117850E7DE787D50CE1ED8327 ====

[CUETools log; Date: 15.09.2020 17:34:12; Version: 2.1.4]
[CTDB TOCID: stDW_HfpgIEK7o6DR0pPGSk7x48-] found.
Track | CTDB Status
1 | (16/16) Accurately ripped
2 | (16/16) Accurately ripped
3 | (16/16) Accurately ripped
4 | (16/16) Accurately ripped
5 | (16/16) Accurately ripped
6 | (16/16) Accurately ripped
7 | (16/16) Accurately ripped
8 | (16/16) Accurately ripped
9 | (16/16) Accurately ripped
10 | (16/16) Accurately ripped
[AccurateRip ID: 000f227a-0078a4c7-6b08f80a] found.
Track [ CRC | V2 ] Status
01 [e9b65ec4|93c472e5] (0+3/3) Accurately ripped
02 [b2ff0a74|606eb1cd] (0+3/3) Accurately ripped
03 [6ea13beb|c4841dc3] (0+3/3) Accurately ripped
04 [d33282e0|d2b34ef9] (0+3/3) Accurately ripped
05 [d1dcebf2|b1e4153a] (0+3/3) Accurately ripped
06 [2c9b8adb|a4d122ec] (0+3/3) Accurately ripped
07 [1dda2015|72acd093] (0+3/3) Accurately ripped
08 [adac9378|2e51ceca] (0+3/3) Accurately ripped
09 [c95a54c4|f986e2bc] (0+3/3) Accurately ripped
10 [afeaddff|4cd17465] (0+3/3) Accurately ripped

Track Peak [ CRC32 ] [W/O NULL] [ LOG ]
– 97,7 [27F284F4] [785BA3F7]
01 96,7 [8F29AEBB] [6157DE8E] CRC32
02 97,7 [8F698A21] [B3446828] CRC32
03 97,7 [AE9FA58C] [132CEDF0] CRC32
04 97,7 [00EFE10C] [B8C90EC6] CRC32
05 97,7 [A44241FD] [0AAC05C1] CRC32
06 97,7 [A8E81CEE] [3FBF3712] CRC32
07 97,7 [45835900] [16CD7E69] CRC32
08 97,7 [713DA82E] [CA81A505] CRC32
09 96,7 [5ECD57D9] [10ED5C18] CRC32
10 96,9 [F3B8A492] [2CB68F2A] CRC32

Thanks to oppaoppa

See also:
Marcos Valle & Azymuth - F...(1972) [Japanese Edition 2020]
Azimuth - Azimuth (1975) [Japanese Edition 2013]
Azymuth - Outubro (1980) [Reissue 2016]