Subcategories

B.B. King - Completely Well (1969) [Non-Remastered]

Posted By: Designol
B.B. King - Completely Well (1969) [Non-Remastered]

B.B. King - Completely Well (1969) [Non-Remastered]
EAC | FLAC | Image (Cue&Log) ~ 307 Mb | Mp3 (CBR320) ~ 142 Mb | Scans included
Modern Electric Blues, Soul-Blues | Label: MCA | # MCAD-31039 | 00:50:06

Completely Well was B.B. King's breakthrough album in 1969, which finally got him the long-deserved acclaim that was no less than his due. It contained his signature number, "The Thrill Is Gone," and eight other tunes, six of them emanating from King's pen, usually in a co-writing situation. Hardliners point to the horn charts and the overdubbed strings as the beginning of the end of King's old style that so identifiably earmarked his early sides for the Bihari Brothers and his later tracks for ABC, but this is truly the album that made the world sit up and take notice of B.B. King. The plus points include loose arrangements and a small combo behind him that never dwarfs the proceedings or gets in the way. King, for his part, sounds like he's having a ball, playing and singing at peak power. This is certainly not the place to start your B.B. King collection, but it's a nice stop along the way before you finish it.

Review by Cub Koda, Allmusic.com

B.B. King - Completely Well (1969) [Non-Remastered]



Tracklist:

01. So Excited (5:38)
02. No Good (4:38)
03. You're Losin' Me (4:56)
04. What Happened (4:44)
05. Confessin' The Blues (4:58)
06. Key To My Kingdom (3:21)
07. Cryin' Won't Help You Now / You're Mean (16:27)
08. The Thrill Is Gone (5:26)


Exact Audio Copy V1.0 beta 6 from 9. April 2015

Отчёт EAC об извлечении, выполненном 13. октября 2017, 23:06

B.B. King / Completely Well [MCAD-31039]

Дисковод: PLEXTOR CD-R PX-230A Adapter: 1 ID: 1

Режим чтения : Достоверность
Использование точного потока : Да
Отключение кэша аудио : Да
Использование указателей C2 : Нет

Коррекция смещения при чтении : 738
Способность читать области Lead-in и Lead-out : Нет
Заполнение пропущенных сэмплов тишиной : Да
Удаление блоков с тишиной в начале и конце : Нет
При вычислениях CRC использовались нулевые сэмплы : Да
Интерфейс : Встроенный Win32-интерфейс для Win NT/2000

Выходной формат : Пользовательский кодировщик
Выбранный битрейт : 1024 kBit/s
Качество : Высокий
Добавление ID3-тега : Нет
Утилита сжатия : C:\Program Files (x86)\Exact Audio Copy\FLAC\FLAC.EXE
Дополнительные параметры : -8 -V -T "ARTIST=%artist%" -T "ALBUM=%albumtitle%" -T "DATE=%year%" -T "GENRE=%genre%" -T "COMMENT=ripped by pmx222" %source%


TOC извлечённого CD

Трек | Старт | Длительность | Начальный сектор | Конечный сектор
––––––––––––––––––––––––––––––––––-
1 | 0:00.37 | 5:37.68 | 37 | 25379
2 | 5:38.30 | 4:37.65 | 25380 | 46219
3 | 10:16.20 | 4:55.40 | 46220 | 68384
4 | 15:11.60 | 4:43.50 | 68385 | 89659
5 | 19:55.35 | 4:57.50 | 89660 | 111984
6 | 24:53.10 | 3:20.42 | 111985 | 127026
7 | 28:13.52 | 16:27.10 | 127027 | 201061
8 | 44:40.62 | 5:25.40 | 201062 | 225476


Характеристики диапазона извлечения и сообщения об ошибках

Выбранный диапазон

Имя файла D:\pmx222\B.B. King - Completely Well [MCAD-31039].wav

Пиковый уровень 91.9 %
Скорость извлечения 9.5 X
Качество диапазона 100.0 %
CRC теста E402FF30
CRC копии E402FF30
Копирование… OK

Ошибок не произошло


AccurateRip: сводка

Трек 1 : извлечено точно (доверие 7) [6C88DC40] (AR v2)
Трек 2 : извлечено точно (доверие 7) [C73056E8] (AR v2)
Трек 3 : извлечено точно (доверие 7) [5F84FADC] (AR v2)
Трек 4 : извлечено точно (доверие 7) [02244A86] (AR v2)
Трек 5 : извлечено точно (доверие 7) [73C40A57] (AR v2)
Трек 6 : извлечено точно (доверие 7) [F1D25DE2] (AR v2)
Трек 7 : извлечено точно (доверие 7) [76A97685] (AR v2)
Трек 8 : извлечено точно (доверие 7) [837401FC] (AR v2)

Все треки извлечены точно

Конец отчёта

–– CUETools DB Plugin V2.1.6

[CTDB TOCID: BcDI658jdusmpfOemWGjFvbZXVU-] found
Submit result: BcDI658jdusmpfOemWGjFvbZXVU- has been confirmed
Track | CTDB Status
1 | (21/21) Accurately ripped
2 | (21/21) Accurately ripped
3 | (19/21) Accurately ripped
4 | (20/21) Accurately ripped
5 | (20/21) Accurately ripped
6 | (20/21) Accurately ripped
7 | (20/21) Accurately ripped
8 | (20/21) Accurately ripped


==== Контрольная сумма отчёта B7500E2715267795BA87339FC0E193EE2570945BB01363892898E57FFDDB5888 ====

foobar2000 1.2 / Dynamic Range Meter 1.1.1
log date: 2017-10-28 23:36:10

––––––––––––––––––––––––––––––––––––––––
Analyzed: B.B. King / Completely Well [MCAD-31039]
––––––––––––––––––––––––––––––––––––––––

DR Peak RMS Duration Track
––––––––––––––––––––––––––––––––––––––––
DR11 -0.86 dB -15.47 dB 5:38 01-So Excited
DR11 -2.44 dB -16.29 dB 4:38 02-No Good
DR11 -1.87 dB -16.27 dB 4:56 03-You're Losin' Me
DR11 -1.86 dB -16.59 dB 4:44 04-What Happened
DR12 -2.45 dB -16.05 dB 4:58 05-Confessin' The Blues
DR12 -1.11 dB -16.87 dB 3:21 06-Key To My Kingdom
DR12 -0.73 dB -15.00 dB 16:27 07-Cryin' Won't Help You Now / You're Mean
DR12 -2.02 dB -16.83 dB 5:26 08-The Thrill Is Gone
––––––––––––––––––––––––––––––––––––––––

Number of tracks: 8
Official DR value: DR12

Samplerate: 44100 Hz
Channels: 2
Bits per sample: 16
Bitrate: 782 kbps
Codec: FLAC
================================================================================

B.B. King - Completely Well (1969) [Non-Remastered]

B.B. King - Completely Well (1969) [Non-Remastered]