Subcategories

B.B. King - Live At The Regal (1964) Remastered 1997 [Re-Up]

Posted By: Designol
B.B. King - Live At The Regal (1964) Remastered 1997 [Re-Up]

B.B. King - Live At The Regal (1964) [Remastered 1997]
EAC | FLAC | Image (Cue&Log) ~ 241 Mb | Mp3 (CBR320) ~ 97 Mb | Scans included
Electric Blues, Soul-Blues, Early R&B | Label: MCA | # MCD 11646, 111 646-2 | 00:35:03

B.B. King is not only a timeless singer and guitarist, he's also a natural-born entertainer, and on Live at the Regal the listener is treated to an exhibition of all three of his talents. Over percolating horn hits and rolling shuffles, King treats an enthusiastic audience (at some points, they shriek after he delivers each line) to a collection of some of his greatest hits. The backing band is razor-sharp, picking up the leader's cues with almost telepathic accuracy. King's voice is rarely in this fine of form, shifting effortlessly between his falsetto and his regular range, hitting the microphone hard for gritty emphasis and backing off in moments of almost intimate tenderness. Nowhere is this more evident than at the climax of "How Blue Can You Get," where the Chicago venue threatens to explode at King's prompting. Of course, the master's guitar is all over this record, and his playing here is among the best in his long career. Displaying a jazz sensibility, King's lines are sophisticated without losing their grit. More than anything else, Live at the Regal is a textbook example of how to set up a live performance. Talking to the crowd, setting up the tunes with a vignette, King is the consummate entertainer. Live at the Regal is an absolutely necessary acquisition for fans of B.B. King or blues music in general. A high point, perhaps even the high point, for uptown blues.

Review by Daniel Gioffre, Allmusic.com

B.B. King - Live At The Regal (1964) Remastered 1997 [Re-Up]



Tracklist:

01. Every Day I Have The Blues (03:09)
02. Sweet Little Angel (04:09)
03. It's My Own Fault (03:09)
04. How Blue Can You Get? (03:34)
05. Please Love Me (03:01)
06. You Upset Me Baby (02:39)
07. Worry, Worry (06:23)
08. Woke Up This Mornin' (01:44)
09. You Done Lost Your Good Thing Now (04:33)
10. Help The Poor (02:38)


Exact Audio Copy V0.99 prebeta 4 from 23. January 2008

Отчёт EAC об извлечении, выполненном 27. ноября 2010, 15:20

B. B. King / Live At The Regal

Дисковод: ATAPI iHES108 2 Adapter: 1 ID: 1

Режим чтения : Достоверность
Использование точного потока : Да
Отключение кэша аудио : Да
Использование указателей C2 : Нет

Коррекция смещения при чтении : 6
Способность читать области Lead-in и Lead-out : Нет
Заполнение пропущенных сэмплов тишиной : Да
Удаление блоков с тишиной в начале и конце : Нет
При вычислениях CRC использовались нулевые сэмплы : Да
Интерфейс : Встроенный Win32-интерфейс для Win NT/2000

Выходной формат : Пользовательский кодировщик
Выбранный битрейт : 1024 kBit/s
Качество : Высокий
Добавление ID3-тэга : Нет
Утилита сжатия : C:\Program Files\Exact Audio Copy\Flac\flac.exe
Дополнительные параметры : -V -8 -T "artist=%a" -T "title=%t" -T "album=%g" -T "date=%y" -T "tracknumber=%n" -T "genre=%m" %s


TOC извлечённого CD

Трек | Старт | Длительность | Начальный сектор | Конечный сектор
––––––––––––––––––––––––––––––––––-
1 | 0:00.32 | 3:09.10 | 32 | 14216
2 | 3:09.42 | 4:09.48 | 14217 | 32939
3 | 7:19.15 | 3:09.25 | 32940 | 47139
4 | 10:28.40 | 3:34.72 | 47140 | 63261
5 | 14:03.37 | 3:01.60 | 63262 | 76896
6 | 17:05.22 | 2:39.13 | 76897 | 88834
7 | 19:44.35 | 6:23.25 | 88835 | 117584
8 | 26:07.60 | 1:44.35 | 117585 | 125419
9 | 27:52.20 | 4:33.12 | 125420 | 145906
10 | 32:25.32 | 2:38.25 | 145907 | 157781


Характеристики диапазона извлечения и сообщения об ошибках

Выбранный диапазон

Имя файла D:\EAC-FOLDER\1964-B. B. King - Live At The Regal\1964-B. B. King - Live At The Regal\B. B. King - Live At The Regal.wav

Пиковый уровень 100.0 %
Качество диапазона 100.0 %
CRC теста A68470D5
CRC копии A68470D5
Копирование… OK

Ошибок не произошло


AccurateRip: сводка

Трек 1 точное извлечение (доверие 19) [39D42D92]
Трек 2 точное извлечение (доверие 19) [E6A378F5]
Трек 3 точное извлечение (доверие 19) [F5A9CD93]
Трек 4 точное извлечение (доверие 19) [1664BAAA]
Трек 5 точное извлечение (доверие 19) [7CF8EA4C]
Трек 6 точное извлечение (доверие 19) [766E031C]
Трек 7 точное извлечение (доверие 19) [FDD6B938]
Трек 8 точное извлечение (доверие 19) [5B611458]
Трек 9 точное извлечение (доверие 18) [A649F106]
Трек 10 точное извлечение (доверие 18) [94A04AC2]

Все треки извлечены точно

Конец отчёта

foobar2000 1.3.8 / Dynamic Range Meter 1.1.1
log date: 2015-05-15 12:46:20

––––––––––––––––––––––––––––––––––––––––
Analyzed: B. B. King / Live At The Regal
––––––––––––––––––––––––––––––––––––––––

DR Peak RMS Duration Track
––––––––––––––––––––––––––––––––––––––––
DR10 0.00 dB -12.54 dB 3:09 01-Every Day I Have The Blues
DR10 0.00 dB -13.07 dB 4:10 02-Sweet Little Angel
DR11 0.00 dB -14.17 dB 3:09 03-It's My Own Fault
DR10 0.00 dB -13.96 dB 3:35 04-How Blue Can You Get?
DR10 0.00 dB -11.40 dB 3:02 05-Please Love Me
DR11 0.00 dB -14.10 dB 2:39 06-You Upset Me Baby
DR11 0.00 dB -14.56 dB 6:23 07-Worry, Worry
DR10 0.00 dB -12.35 dB 1:44 08-Woke Up This Mornin'
DR10 0.00 dB -13.78 dB 4:33 09-You Done Lost Your Good Thing Now
DR11 0.00 dB -14.30 dB 2:38 10-Help The Poor
––––––––––––––––––––––––––––––––––––––––

Number of tracks: 10
Official DR value: DR10

Samplerate: 44100 Hz
Channels: 2
Bits per sample: 16
Bitrate: 893 kbps
Codec: FLAC
================================================================================

B.B. King - Live At The Regal (1964) Remastered 1997 [Re-Up]