Subcategories

B-H-Y - Baker-Harris-Young (1979) {2013 Remastered & Expanded Reissue - Big Break Records CDBBR0233}

Posted By: ruskaval
B-H-Y - Baker-Harris-Young (1979) {2013 Remastered & Expanded Reissue - Big Break Records CDBBR0233}

B-H-Y - Baker-Harris-Young (1979) {2013 Remastered & Expanded Reissue - Big Break Records CDBBR0233}
EAC rip (secure mode) | FLAC (tracks)+CUE+LOG -> 329 Mb | MP3 @320 -> 102 Mb
Full Artwork @ 300 dpi (png) -> 46 Mb | 5% repair rar
© 1979, 2013 Salsoul / Verse Music / Big Break Records / Cherry Red Records | CDBBR 0233
Disco / Soul / Philly Soul / R&B / Funk

At first glance the letters B-H-Y may not seem like much, but a little scratch at the surface would reveal three names of some of the most forward thinking, innovative and talented musicians of their time and beyond – Ronnie Baker, Norman Harris and Earl Young.
Baker-Harris-Young, these three names are synonymous with Philly Soul and Disco and with good reason for no three people have had more input into shaping and defining disco as Baker, Harris and Young.
Earl Young, a highly talented drummer, was founder and leader of The Trammps along with band mate Ronnie Baker. Young is widely considered the innovator of the Disco style of drumming favouring extensive use of the hi-hat, which led to his recordings being favoured by DJs across the globe and along with Baker and Harris, the trio have become widely recognized as the founders of the disco sound.
As individuals Baker, Harris and Young were involved in every part of the burgeoning Philly Soul scene with each musician performing at Philadelphia International Records playing on numerous Gamble & Huff arrangements. As the formation of The Salsoul Orchestra came to fruition Baker-Harris-Young played an instrumental part in providing the musical direction and helping to sculpt the unique and instantly recognizable Salsoul brand that we all know and love.
BBR brings you the only album to ever feature Baker-Harris-Young as this Disco super-group showcasing the amazing talent of each musician. Featuring such hits as Handle Me With Love And Care, Marathon Dancer and I Just Want To Funk (With You).
Lovingly remastered and fully expanded, complete with extensive liner notes and added bonus content this BBR Remaster is a must have for any Soul, Funk, Disco, R&B, Philly Soul and Salsoul fans out there!
B-H-Y - Baker-Harris-Young (1979) {2013 Remastered & Expanded Reissue - Big Break Records CDBBR0233}


Track Listing

1. COME AS YOU ARE
2. HANDLE ME WITH LOVE AND CARE
3. WE FUNK THE BEST
4. MARATHON DANCER
5. TOUCH ME WHILE I’M TOUCHING YOU
6. TAKE MY BODY NOW
7. I JUST WANT TO FUNK (WITH YOU)
8. OPUS B-H-Y

BONUS TRACK

9. COME AS YOU ARE (12” Disco Mix)

Exact Audio Copy V1.0 beta 3 from 29. August 2011

EAC extraction logfile from 16. October 2013, 11:41

B-H-Y / B-H-Y

Used drive : TSSTcorp CDDVDW Adapter: 0 ID: 0

Read mode : Secure
Utilize accurate stream : Yes
Defeat audio cache : Yes
Make use of C2 pointers : No

Read offset correction : 6
Overread into Lead-In and Lead-Out : No
Fill up missing offset samples with silence : Yes
Delete leading and trailing silent blocks : No
Null samples used in CRC calculations : Yes
Used interface : Native Win32 interface for Win NT & 2000
Gap handling : Appended to previous track

Used output format : User Defined Encoder
Selected bitrate : 128 kBit/s
Quality : High
Add ID3 tag : No
Command line compressor : C:\Program Files (x86)\Exact Audio Copy\Flac\flac.exe
Additional command line options : -8 -V -T "ARTIST=%artist%" -T "TITLE=%title%" -T "ALBUM=%albumtitle%" -T "DATE=%year%" -T "TRACKNUMBER=%tracknr%" -T "TOTALTRACKS=%numtracks%" -T "GENRE=%genre%" -T "ALBUMARTIST=%albumartist%" -T "ALBUM ARTIST=%albumartist%" -T "COMMENT=EAC Secure Mode, Test & Copy, AccurateRip, FLAC -8" %source%


TOC of the extracted CD

Track | Start | Length | Start sector | End sector
––––––––––––––––––––––––––––-
1 | 0:00.00 | 4:59.26 | 0 | 22450
2 | 4:59.26 | 6:10.25 | 22451 | 50225
3 | 11:09.51 | 3:40.08 | 50226 | 66733
4 | 14:49.59 | 3:51.41 | 66734 | 84099
5 | 18:41.25 | 5:25.06 | 84100 | 108480
6 | 24:06.31 | 5:05.61 | 108481 | 131416
7 | 29:12.17 | 3:27.70 | 131417 | 147011
8 | 32:40.12 | 4:24.17 | 147012 | 166828
9 | 37:04.29 | 6:32.28 | 166829 | 196256


Track 1

Filename C:\AddisistheGodFlac\01 - Come As You Are.wav

Pre-gap length 0:00:02.00

Peak level 96.6 %
Extraction speed 2.8 X
Track quality 100.0 %
Test CRC 37B1A7CA
Copy CRC 37B1A7CA
Track not present in AccurateRip database
Copy OK

Track 2

Filename C:\AddisistheGodFlac\02 - Handle Me With Love And Care.wav

Pre-gap length 0:00:00.74

Peak level 96.6 %
Extraction speed 3.3 X
Track quality 100.0 %
Test CRC 74EAFE86
Copy CRC 74EAFE86
Track not present in AccurateRip database
Copy OK

Track 3

Filename C:\AddisistheGodFlac\03 - We Funk The Best.wav

Pre-gap length 0:00:00.23

Peak level 96.6 %
Extraction speed 2.7 X
Track quality 99.9 %
Test CRC 1A5B42B8
Copy CRC 1A5B42B8
Track not present in AccurateRip database
Copy OK

Track 4

Filename C:\AddisistheGodFlac\04 - Marathon Dancer.wav

Pre-gap length 0:00:01.06

Peak level 96.6 %
Extraction speed 3.6 X
Track quality 100.0 %
Test CRC CEA83DAE
Copy CRC CEA83DAE
Track not present in AccurateRip database
Copy OK

Track 5

Filename C:\AddisistheGodFlac\05 - Touch Me While I'm Touching You.wav

Pre-gap length 0:00:01.02

Peak level 96.6 %
Extraction speed 4.0 X
Track quality 100.0 %
Test CRC CCE75258
Copy CRC CCE75258
Track not present in AccurateRip database
Copy OK

Track 6

Filename C:\AddisistheGodFlac\06 - Take My Body Now.wav

Pre-gap length 0:00:01.04

Peak level 96.6 %
Extraction speed 4.3 X
Track quality 100.0 %
Test CRC D999473E
Copy CRC D999473E
Track not present in AccurateRip database
Copy OK

Track 7

Filename C:\AddisistheGodFlac\07 - I Just Want To Funk (With You).wav

Pre-gap length 0:00:01.22

Peak level 96.6 %
Extraction speed 4.3 X
Track quality 100.0 %
Test CRC 08193B64
Copy CRC 08193B64
Track not present in AccurateRip database
Copy OK

Track 8

Filename C:\AddisistheGodFlac\08 - Opus B-H-Y.wav

Pre-gap length 0:00:00.68

Peak level 96.6 %
Extraction speed 4.6 X
Track quality 100.0 %
Test CRC B9F55664
Copy CRC B9F55664
Track not present in AccurateRip database
Copy OK

Track 9

Filename C:\AddisistheGodFlac\09 - Come As You Are (12' Disco Mix).wav

Pre-gap length 0:00:03.15

Peak level 96.6 %
Extraction speed 5.0 X
Track quality 100.0 %
Test CRC F4297248
Copy CRC F4297248
Track not present in AccurateRip database
Copy OK


None of the tracks are present in the AccurateRip database

No errors occurred

End of status report

==== Log checksum C928FABB70762E9569ED7B5651CCB40746414D178C00F4A7B774C210E376CE3D ====


B-H-Y - Baker-Harris-Young (1979) {2013 Remastered & Expanded Reissue - Big Break Records CDBBR0233}

B-H-Y - Baker-Harris-Young (1979) {2013 Remastered & Expanded Reissue - Big Break Records CDBBR0233}


see more Big Break Records Remasters…


===