Subcategories

B.B. King - Live At The Apollo (1991)

Posted By: Designol
B.B. King - Live At The Apollo (1991)

B.B. King - Live At The Apollo (1991)
EAC | FLAC | Image (Cue&Log) ~ 318 Mb (incl 5%) | Mp3 (CBR320) ~ 141 Mb (incl 5%) | Scans included
Genre: Modern Electric Blues, Soul-Blues | Label: GRP | # GRD-9637 | Time: 00:44:31

Live at the Apollo is a Blues album by B.B. King and the Phillip Morris "Super Band" recorded at the famous Apollo Theater in Harlem, New York. It was awarded the 1992 Grammy Award for Best Traditional Blues Album.

There are both good and bad points to this CD. Of the latter, the Phillip Morris "Super Band" is confined to background work with – other than a few spots for Plas Johnson's tenor – no soloists being heard from. As an ensemble, the all-star orchestra performs well, but is essentially anonymous. Also, despite the backing, B.B. King does not attempt to play jazz, a wasted opportunity. But, switching to the good points, Live at the Apollo is an excellent example of a strong B.B. King live performance. Somehow he always makes his combination of blues and familiar hits sound fresh. With a liberal amount of space set aside for his guitar solos, B.B. is in top form throughout the well-paced set, which is far superior to most of his overproduced studio sessions for MCA. Even if the big band is mostly irrelevant, this CD is recommended for B.B. King's singing and playing.

Review by Scott Yanow, Allmusic.com

It's not that there's anything wrong with this 1990 recording: King's expressive guitar work and vibrant vocals rarely disappoint in a live setting, and this release here he has a top-notch big band behind him. In addition to U2's "When Love Comes to Town," King rolls through nine staples, including "Sweet Sixteen," "Thrill is Gone," and "Paying the Cost to Be the Boss." On the other hand, King has produced a number of absolutely riveting live albums, including Live at the Regal, Blues Is King, and Live in Cook County Jail. They remain high points of blues history, relegating this solid release to the second tier.

Review by Marc Greilsamer

B.B. King - Live At The Apollo (1991)



Tracklist:

01. When Love Comes to Town (04:52)
02. Sweet Sixteen (07:25)
03. The Thrill Is Gone (03:33)
04. Ain't Nobody's Bizness (02:43)
05. Paying the Cost to Be the Boss (02:29)
06. All Over Again (07:32)
07. Nightlife (04:03)
08. Since I Met You Baby (03:54)
09. Guess Who (05:04)
10. Peace to the World (02:52)


Exact Audio Copy V1.0 beta 6 from 9. April 2015

Отчёт EAC об извлечении, выполненном 9. июля 2016, 19:06

B.B. King / Live At The Apollo

Дисковод: Optiarc DVD RW AD-7173A Adapter: 1 ID: 1

Режим чтения : Достоверность
Использование точного потока : Да
Отключение кэша аудио : Да
Использование указателей C2 : Нет

Коррекция смещения при чтении : 48
Способность читать области Lead-in и Lead-out : Нет
Заполнение пропущенных сэмплов тишиной : Да
Удаление блоков с тишиной в начале и конце : Нет
При вычислениях CRC использовались нулевые сэмплы : Да
Интерфейс : Встроенный Win32-интерфейс для Win NT/2000

Выходной формат : Пользовательский кодировщик
Выбранный битрейт : 1024 kBit/s
Качество : Высокий
Добавление ID3-тега : Нет
Утилита сжатия : C:\Program Files (x86)\Exact Audio Copy\FLAC\FLAC.EXE
Дополнительные параметры : -8 -V -T "ARTIST=%artist%" -T "ALBUM=%albumtitle%" -T "DATE=%year%" -T "GENRE=%genre%" -T "COMMENT=ripped by pmx222" %source%


TOC извлечённого CD

Трек | Старт | Длительность | Начальный сектор | Конечный сектор
––––––––––––––––––––––––––––––––––-
1 | 0:00.00 | 4:52.15 | 0 | 21914
2 | 4:52.15 | 7:25.50 | 21915 | 55339
3 | 12:17.65 | 3:33.07 | 55340 | 71321
4 | 15:50.72 | 2:43.30 | 71322 | 83576
5 | 18:34.27 | 2:29.50 | 83577 | 94801
6 | 21:04.02 | 7:32.38 | 94802 | 128739
7 | 28:36.40 | 4:03.50 | 128740 | 147014
8 | 32:40.15 | 3:54.10 | 147015 | 164574
9 | 36:34.25 | 5:04.27 | 164575 | 187401
10 | 41:38.52 | 2:52.63 | 187402 | 200364


Характеристики диапазона извлечения и сообщения об ошибках

Выбранный диапазон

Имя файла D:\pmx222\B.B. King - Live At The Apollo.wav

Пиковый уровень 96.6 %
Скорость извлечения 6.4 X
Качество диапазона 99.9 %
CRC теста 635018C0
CRC копии 635018C0
Копирование… OK

Ошибок не произошло


AccurateRip: сводка

Трек 1 : извлечено точно (доверие 4) [4FA864E6] (AR v2)
Трек 2 : извлечено точно (доверие 4) [5CEC91A9] (AR v2)
Трек 3 : извлечено точно (доверие 4) [B181736E] (AR v2)
Трек 4 : извлечено точно (доверие 4) [DFB356ED] (AR v2)
Трек 5 : извлечено точно (доверие 4) [0F5AB141] (AR v2)
Трек 6 : извлечено точно (доверие 4) [3313819C] (AR v2)
Трек 7 : извлечено точно (доверие 4) [2A8827D9] (AR v2)
Трек 8 : извлечено точно (доверие 4) [75008A21] (AR v2)
Трек 9 : извлечено точно (доверие 4) [A629A819] (AR v2)
Трек 10 : извлечено точно (доверие 4) [5EDF05A0] (AR v2)

Все треки извлечены точно

Конец отчёта

–– CUETools DB Plugin V2.1.6

[CTDB TOCID: wcINo6kP4oKyDp4rar4H8tDdfOw-] found
Submit result: wcINo6kP4oKyDp4rar4H8tDdfOw- has been confirmed
Track | CTDB Status
1 | (3/3) Accurately ripped
2 | (3/3) Accurately ripped
3 | (3/3) Accurately ripped
4 | (3/3) Accurately ripped
5 | (3/3) Accurately ripped
6 | (3/3) Accurately ripped
7 | (3/3) Accurately ripped
8 | (3/3) Accurately ripped
9 | (3/3) Accurately ripped
10 | (3/3) Accurately ripped


==== Контрольная сумма отчёта 03F743C9AEC6C0AE9FBAEAE74D3A5558B83781C8CAFD6411A9B3CCA9AF1F6676 ====

foobar2000 1.2 / Dynamic Range Meter 1.1.1
log date: 2016-09-16 18:25:25

––––––––––––––––––––––––––––––––––––––––
Analyzed: B.B. King / Live At The Apollo
––––––––––––––––––––––––––––––––––––––––

DR Peak RMS Duration Track
––––––––––––––––––––––––––––––––––––––––
DR14 -0.30 dB -15.56 dB 4:52 01-When Love Comes to Town
DR13 -0.29 dB -16.52 dB 7:26 02-Sweet Sixteen
DR13 -0.47 dB -16.26 dB 3:33 03-The Thrill Is Gone
DR14 -0.29 dB -16.15 dB 2:43 04-Ain't Nobody's Bizness
DR14 -0.29 dB -15.52 dB 2:30 05-Paying the Cost to Be the Boss
DR16 -0.30 dB -19.49 dB 7:33 06-All Over Again
DR14 -0.30 dB -16.46 dB 4:04 07-Nightlife
DR13 -0.29 dB -16.56 dB 3:54 08-Since I Met You Baby
DR14 -0.85 dB -19.12 dB 5:04 09-Guess Who
DR13 -0.29 dB -14.67 dB 2:53 10-Peace to the World
––––––––––––––––––––––––––––––––––––––––

Number of tracks: 10
Official DR value: DR14

Samplerate: 44100 Hz
Channels: 2
Bits per sample: 16
Bitrate: 851 kbps
Codec: FLAC
================================================================================

B.B. King - Live At The Apollo (1991)

B.B. King - Live At The Apollo (1991)

NitroFlare:

BBKngApollo.flac.rar

BBKngApollo.mp3.rar

Password: designol