Subcategories

B.B. King - Blues Is King (1967) [US 1st Press, 1987]

Posted By: Andi_Deris
B.B. King - Blues Is King (1967) [US 1st Press, 1987]

B.B. King - Blues Is King (1967) [US 1st Press, 1987]
EAC Rip | FLAC: Image+Cue+Log | 279 Mb | MP3 CBR 320 kbps | 120 Mb | Scans | Time: 40:33
MCA Records | MCAD-31368
Blues, Electric Blues

By 1967, King had refined his singing and guitar style (which were always intertwined) to a fine point. What was just beginning to emerge during this period was King the showman, the singer with a story to tell his audience; sometimes a sad story, sometimes an angry one, occasionally even a downright mean one. Nowhere was this more apparent than in live performance. Here he's captured in concert in Chicago, home of the blues and the ideal place to testify to the congregation. From "Tired of Your Jive" to "I Know What You're Puttin' Down" to the unequivocal "Baby Get Lost," B.B. lets his audience in on the ups and downs of romance in no uncertain terms, both through his impassioned vocals and characteristically stinging guitar. The effect is both cathartic and awe-inspiring.

B.B. King - Blues Is King (1967) [US 1st Press, 1987]




Track Listing

01. Introduction (00:20)
02. Waitin' On You (02:30)
03. Introduction (00:49)
04. Gamblers' Blues (05:13)
05. Tired Of Your Jive (03:32)
06. Night Life (04:49)
07. Buzz Me (04:14)
08. Don't Answer The Door (04:10)
09. Blind Love (03:33)
10. I Know What You're Puttin' Down (03:37)
11. Baby Get Lost (04:00)
12. Gonna Keep On Loving You (03:46)

Produced by Johnny Pate, Louis Zito

Personnel

• B.B. King - guitars, vocals
• Kenneth Sands - trumpet
• Bobby Forte - tenor saxophone
• Duke Jethro - organ
• Louis Satterfield - bass
• Sonny Freeman - drums

Exact Audio Copy V1.0 beta 6 from 9. April 2015

Отчёт EAC об извлечении, выполненном 4. июля 2015, 21:25

B.B. King / Blues Is King

Дисковод: Optiarc DVD RW AD-7173A Adapter: 1 ID: 1

Режим чтения : Достоверность
Использование точного потока : Да
Отключение кэша аудио : Да
Использование указателей C2 : Нет

Коррекция смещения при чтении : 48
Способность читать области Lead-in и Lead-out : Нет
Заполнение пропущенных сэмплов тишиной : Да
Удаление блоков с тишиной в начале и конце : Нет
При вычислениях CRC использовались нулевые сэмплы : Да
Интерфейс : Встроенный Win32-интерфейс для Win NT/2000

Выходной формат : Пользовательский кодировщик
Выбранный битрейт : 1024 kBit/s
Качество : Высокий
Добавление ID3-тега : Нет
Утилита сжатия : C:\Program Files (x86)\Exact Audio Copy\FLAC\FLAC.EXE
Дополнительные параметры : -8 -V -T "ARTIST=%artist%" -T "ALBUM=%albumtitle%" -T "DATE=%year%" -T "GENRE=%genre%" -T "COMMENT=ripped by pmx222" %source%


TOC извлечённого CD

Трек | Старт | Длительность | Начальный сектор | Конечный сектор
––––––––––––––––––––––––––––––––––-
1 | 0:00.00 | 0:19.67 | 0 | 1491
2 | 0:19.67 | 2:29.45 | 1492 | 12711
3 | 2:49.37 | 0:49.13 | 12712 | 16399
4 | 3:38.50 | 5:12.40 | 16400 | 39839
5 | 8:51.15 | 3:32.07 | 39840 | 55746
6 | 12:23.22 | 4:48.45 | 55747 | 77391
7 | 17:11.67 | 4:14.05 | 77392 | 96446
8 | 21:25.72 | 4:10.15 | 96447 | 115211
9 | 25:36.12 | 3:33.08 | 115212 | 131194
10 | 29:09.20 | 3:36.67 | 131195 | 147461
11 | 32:46.12 | 3:59.70 | 147462 | 165456
12 | 36:46.07 | 3:46.30 | 165457 | 182436


Характеристики диапазона извлечения и сообщения об ошибках

Выбранный диапазон

Имя файла D:\рмх222\B.B. King - Blues Is King.wav

Пиковый уровень 92.5 %
Скорость извлечения 7.1 X
Качество диапазона 100.0 %
CRC теста A619C727
CRC копии A619C727
Копирование… OK

Ошибок не произошло


AccurateRip: сводка

Трек 1 : извлечено точно (доверие 5) [BA168572] (AR v2)
Трек 2 : извлечено точно (доверие 5) [347A13F1] (AR v2)
Трек 3 : извлечено точно (доверие 5) [AC51377E] (AR v2)
Трек 4 : извлечено точно (доверие 4) [EB23BBE1] (AR v2)
Трек 5 : извлечено точно (доверие 5) [E3376650] (AR v2)
Трек 6 : извлечено точно (доверие 5) [A2612057] (AR v2)
Трек 7 : извлечено точно (доверие 5) [F28916B4] (AR v2)
Трек 8 : извлечено точно (доверие 5) [4DE82C9F] (AR v2)
Трек 9 : извлечено точно (доверие 5) [D0B66EDC] (AR v2)
Трек 10 : извлечено точно (доверие 5) [AE23ED70] (AR v2)
Трек 11 : извлечено точно (доверие 5) [7BDD7CF4] (AR v2)
Трек 12 : извлечено точно (доверие 6) [AD4546F7] (AR v2)

Все треки извлечены точно

Конец отчёта

–– CUETools DB Plugin V2.1.6

[CTDB TOCID: 6EVejAhGs518KCb411dQhcm54lM-] found
Submit result: 6EVejAhGs518KCb411dQhcm54lM- has been confirmed
Track | CTDB Status
1 | (8/8) Accurately ripped
2 | (8/8) Accurately ripped
3 | (8/8) Accurately ripped
4 | (8/8) Accurately ripped
5 | (8/8) Accurately ripped
6 | (8/8) Accurately ripped
7 | (8/8) Accurately ripped
8 | (8/8) Accurately ripped
9 | (8/8) Accurately ripped
10 | (8/8) Accurately ripped
11 | (8/8) Accurately ripped
12 | (8/8) Accurately ripped


==== Контрольная сумма отчёта 838991112EA70DB560083588793F1C9B5DAE23679A7DAD245F683E3C07488738 ====


Many thanks to the original uploader: рмх222