Subcategories

B.J. Thomas ‎- Midnight Minute (1989) [Japan]

Posted By: BlondStyle
B.J. Thomas ‎- Midnight Minute (1989) [Japan]

B.J. Thomas ‎- Midnight Minute (1989) [Japan]
Pop/Rock, AOR, AC | EAC Rip | FLAC, Img+CUE+LOG+Scans-300dpi (JPEG) | 43:38 Min | 319,72 Mb
Label: Warner-Pioneer Corporation (Japan) | Released: 1989-10-10 (1989-08-15)

B.J. Thomas has performed during four decades, sold more than 70 million records, won 5 Grammy Awards and scored 15 Top40 Pop/Rock Hits. But all this success was achieved in the country/pop genre. At the middle of the eighties, AOR rule the charts, and he was seduced by TV soundtracks guru STEVE DORFF to record the main theme for the soap opera 'Growing Pains'. The single (a duet with Jennifer Warnes) was a hit, and B.J. understood that was the direction to take. "Midnight Minute" is the only Adult Contemporary / WestCoast / AOR album recorded by Thomas. And what a good one. Glorious mid-tempo tunes, heartful ballads and a couple uptempo songs like 'If It Takes All Night' (written by STAN MEISSNER), the absolute winner here, TOP AOR. Thomas' voice is deep and distinctive, remembering BENNY MARDONES at some point. Needless to say that production is top notch, and the guitars of masters HUFF / LANDAU a pure pleasure. Also included here is the re-recorded version of 'As Long As We Got Each Other' with Dusty Springfield, used for "Growing Pains" fourth season. A must have to any AC / AOR fan.
B.J. Thomas ‎- Midnight Minute (1989) [Japan]

B.J. Thomas ‎- Midnight Minute (1989) [Japan]


Release of this album: 1989, August, 15 [LP Reprise Records, Cat.# 9 25898-1, USA]
Release of this CD: 1989, October, 10 [CD Warner-Pioneer Corporation (Japan), Cat.# 22P2-3003 / EAN: 4988014730037]
℗© 1989 Reprise Records for the United States and WEA International Inc. for the world outside of the U.S.A.
Manufactured by Warner-Pioneer Corporation, Japan.
Made in Japan

Credits:
Vocals: Billy Joe "B. J." Thomas
Guitars: Dann Huff, Michael Landau, Dean Parks
Bass: Joe Chemay
Keyboards: Pat Coil, Randy Kerber
Drums: Paul Leim
Saxophone: Joel Peskin
Background vocals: Joe Chemay, Tony Sciuto, Julia Tillman Waters, Carmen Twillie, Luther Waters, Oren Waters, Maxine Willard Waters & Terry Williams
Produced by: John Bettis & Steve Dorff


Tracklist:

01. Half A Heart (03:34)
02. Don't Leave Love (Out There All Alone) (04:55)
03. Midnight Minute (04:06)
04. Second Chances (04:13)
05. One Last Time (05:20)
06. Someone Like You (04:17)
07. Young Hearts (04:05)
08. If It Takes All Night (04:25)
09. One Woman (04:20)
10. As Long As We Got Each Other (Theme From Growing Pains) (Duet with Dusty Springfield) (04:22)

Exact Audio Copy V1.1 from 23. June 2015

Отчёт EAC об извлечении, выполненном 13. декабря 2016, 20:01

B.J. Thomas / Midnight Minute (22P2-3003)

Дисковод: PLEXTOR BD-R PX-B950SA Adapter: 1 ID: 0

Режим чтения : Достоверность
Использование точного потока : Да
Отключение кэша аудио : Да
Использование указателей C2 : Нет

Коррекция смещения при чтении : 6
Способность читать области Lead-in и Lead-out : Нет
Заполнение пропущенных сэмплов тишиной : Да
Удаление блоков с тишиной в начале и конце : Нет
При вычислениях CRC использовались нулевые сэмплы : Да
Интерфейс : Встроенный Win32-интерфейс для Win NT/2000

Выходной формат : Пользовательский кодировщик
Выбранный битрейт : 1024 kBit/s
Качество : Высокий
Добавление ID3-тега : Нет
Утилита сжатия : C:\Program Files (x86)\Exact Audio Copy\FLAC\FLAC.EXE
Дополнительные параметры : -6 -V -T "ARTIST=%artist%" -T "TITLE=%title%" -T "ALBUM=%albumtitle%" -T "DATE=%year%" -T "TRACKNUMBER=%tracknr%" -T "GENRE=%genre%" -T "COMMENT=%comment%" -T "BAND=%albuminterpret%" -T "ALBUMARTIST=%albuminterpret%" -T "COMPOSER=%composer%" %haslyrics%–tag-from-file=LYRICS="%lyricsfile%"%haslyrics% -T "DISCNUMBER=%cdnumber%" -T "TOTALDISCS=%totalcds%" -T "TOTALTRACKS=%numtracks%" %hascover%–picture="%coverfile%"%hascover% %source% -o %dest%


TOC извлечённого CD

Трек | Старт | Длительность | Начальный сектор | Конечный сектор
––––––––––––––––––––––––––––––––––-
1 | 0:00.00 | 3:34.30 | 0 | 16079
2 | 3:34.30 | 4:55.25 | 16080 | 38229
3 | 8:29.55 | 4:06.37 | 38230 | 56716
4 | 12:36.17 | 4:13.15 | 56717 | 75706
5 | 16:49.32 | 5:20.03 | 75707 | 99709
6 | 22:09.35 | 4:17.02 | 99710 | 118986
7 | 26:26.37 | 4:04.38 | 118987 | 137324
8 | 30:31.00 | 4:24.70 | 137325 | 157194
9 | 34:55.70 | 4:20.02 | 157195 | 176696
10 | 39:15.72 | 4:22.10 | 176697 | 196356


Характеристики диапазона извлечения и сообщения об ошибках

Выбранный диапазон

Имя файла G:\RIP\BJThomas 1989 Japanese Pressing FLAC by alzal\B.J. Thomas - Midnight Minute (22P2-3003).wav

Пиковый уровень 95.0 %
Скорость извлечения 3.1 X
Качество диапазона 100.0 %
CRC теста 27372E17
CRC копии 27372E17
Копирование… OK

Ошибок не произошло


AccurateRip: сводка

Трек 1 отсутствует в базе данных
Трек 2 отсутствует в базе данных
Трек 3 отсутствует в базе данных
Трек 4 отсутствует в базе данных
Трек 5 отсутствует в базе данных
Трек 6 отсутствует в базе данных
Трек 7 отсутствует в базе данных
Трек 8 отсутствует в базе данных
Трек 9 отсутствует в базе данных
Трек 10 отсутствует в базе данных

Ни одного трека нет в базе AccurateRip

Конец отчёта

–– CUETools DB Plugin V2.1.6

[CTDB TOCID: i5pInlSGRHO7qrM0MnLsfW6tJ4w-] found
Submit result: i5pInlSGRHO7qrM0MnLsfW6tJ4w- has been confirmed
Track | CTDB Status
1 | (1/1) Accurately ripped
2 | (1/1) Accurately ripped
3 | (1/1) Accurately ripped
4 | (1/1) Accurately ripped
5 | (1/1) Accurately ripped
6 | (1/1) Accurately ripped
7 | (1/1) Accurately ripped
8 | (1/1) Accurately ripped
9 | (1/1) Accurately ripped
10 | (1/1) Accurately ripped


==== Контрольная сумма отчёта 9E28756DC884D7C5F092AC5A18C36006789323D0969E6434156D1F00996B589B ====

––––––––––––––––––––––––––––––––––––––––
Analyzed: B.J. Thomas / Midnight Minute (22P2-3003)
––––––––––––––––––––––––––––––––––––––––

DR Peak RMS Duration Track
––––––––––––––––––––––––––––––––––––––––
DR9 -0.75 dB -13.26 dB 3:34 01-Half A Heart
DR10 -0.53 dB -13.66 dB 4:55 02-Don't Leave Love (Out There All Alone)
DR9 -0.72 dB -11.99 dB 4:06 03-Midnight Minute
DR10 -0.82 dB -12.86 dB 4:13 04-Second Chances
DR10 -0.44 dB -13.50 dB 5:20 05-One Last One More Time
DR10 -0.74 dB -12.57 dB 4:17 06-Someone Like You
DR10 -0.66 dB -12.98 dB 4:05 07-Young Hearts
DR9 -0.81 dB -11.87 dB 4:25 08-If It Takes All Night
DR10 -0.69 dB -13.04 dB 4:20 09-One Woman
DR10 -0.56 dB -12.09 dB 4:22 10-As Long As We Got Each Other (Theme From Growing Pains) (Duet With Dusty Spri…
––––––––––––––––––––––––––––––––––––––––

Number of tracks: 10
Official DR value: DR10

Samplerate: 44100 Hz
Channels: 2
Bits per sample: 16
Bitrate: 955 kbps
Codec: FLAC
================================================================================

All thanks to alzal
Nitroflare
password: BlondStyle