B.J. Thomas - The Very Best Of (1997)

Posted By: popsakov
B.J. Thomas - The Very Best Of (1997)

B.J. Thomas - The Very Best Of (1997)
EAC Rip | FLAC (Img) + Cue + Log ~ 379 Mb | MP3 CBR320 ~ 146 Mb
Scans Included (JPG, 300 dpi) | RAR 5% Recovery
Pop, Country, Soft Rock | Varèse Sarabande Records #VSD-5813

Billy Joe "B.J." Thomas is an American popular singer. He is particularly known for his hit songs of the 1960s and 1970s, which appeared on the pop, country, and Christian music charts. His best-known recording is the Burt Bacharach/Hal David song "Raindrops Keep Fallin' on My Head". ~ Wiki

The "very best" in the title of this 17-track collection is somewhat debatable on a number of accounts. There are still more hits that could have been crammed into this package, as six of the entries are non-chart (usually) album tracks. The non-inclusion of "Billy and Sue," "Mama," "and "I'm So Lonesome I Could Cry"" seems almost criminal, and while the album tracks are interesting and show his vocal prowess to great effect, when a compilation banners itself to be a "very best of," it should be just that. Next time, save the album cuts for a rarities package somewhere down the reissue road.
~ Cub Koda, All Music Guide

***************

B.J. Thomas - The Very Best Of (1997)

Track List:

01. Hooked On a Feeling [02:49]
02. Raindrops Keep Fallin' on My Head [03:18]
03. Suspicious Minds [05:45]
04. Do What You Gotta Do [03:27]
05. Most of All [02:57]
06. No Love At All [02:56]
07. Brown Eyed Woman [03:10]
08. I Don't Know Any Better [03:19]
09. Everybody's Out of Town [02:43]
10. I Just Can't Help Believing [02:59]
11. Mighty Clouds of Joy [03:18]
12. Long Ago Tomorrow [04:02]
13. Rock and Roll Lullaby [04:15]
14. Roads [03:05]
15. Sweet Cherry Wine [02:59]
16. That's What Friends Are For [03:56]
17. Happier Than the Morning Sun [03:24]

Exact Audio Copy V0.99 prebeta 4 from 23. January 2008

Отчёт EAC об извлечении, выполненном 11. июля 2009, 20:58

B. J. Thomas / The Very Best of BJ Thomas

Дисковод: PLEXTOR DVDR PX-800A Adapter: 0 ID: 0

Режим чтения : Достоверность
Использование точного потока : Да
Отключение кэша аудио : Да
Использование указателей C2 : Нет

Коррекция смещения при чтении : 48
Способность читать области Lead-in и Lead-out : Нет
Заполнение пропущенных сэмплов тишиной : Да
Удаление блоков с тишиной в начале и конце : Нет
При вычислениях CRC использовались нулевые сэмплы : Да
Интерфейс : Установленный внешний ASPI-интерфейс

Выходной формат : Внутренние WAV-операции
Формат сэмплов : 44.100 Гц; 16 бит; стерео


TOC извлечённого CD

Трек | Старт | Длительность | Начальный сектор | Конечный сектор
––––––––––––––––––––––––––––––––––-
1 | 0:00.00 | 2:48.60 | 0 | 12659
2 | 2:48.60 | 3:17.22 | 12660 | 27456
3 | 6:06.07 | 5:44.38 | 27457 | 53294
4 | 11:50.45 | 3:26.20 | 53295 | 68764
5 | 15:16.65 | 2:56.17 | 68765 | 81981
6 | 18:13.07 | 2:55.13 | 81982 | 95119
7 | 21:08.20 | 3:09.65 | 95120 | 109359
8 | 24:18.10 | 3:18.25 | 109360 | 124234
9 | 27:36.35 | 2:42.72 | 124235 | 136456
10 | 30:19.32 | 2:58.18 | 136457 | 149824
11 | 33:17.50 | 3:17.10 | 149825 | 164609
12 | 36:34.60 | 4:01.27 | 164610 | 182711
13 | 40:36.12 | 4:14.73 | 182712 | 201834
14 | 44:51.10 | 3:04.55 | 201835 | 215689
15 | 47:55.65 | 2:58.05 | 215690 | 229044
16 | 50:53.70 | 3:55.55 | 229045 | 246724
17 | 54:49.50 | 3:23.65 | 246725 | 262014


Характеристики диапазона извлечения и сообщения об ошибках

Выбранный диапазон

Имя файла D:\Lossless\B.J. Thomas - The Very Best Of\B. J. Thomas - The Very Best of BJ Thomas.wav

Пиковый уровень 97.2 %
Качество диапазона 99.9 %
CRC копии BF1DB80C
Копирование… OK

Ошибок не произошло

Конец отчёта

foobar2000 1.2.6 / Dynamic Range Meter 1.1.1
log date: 2015-08-22 16:49:59

––––––––––––––––––––––––––––––––––––––––
Analyzed: B. J. Thomas / The Very Best of BJ Thomas
––––––––––––––––––––––––––––––––––––––––

DR Peak RMS Duration Track
––––––––––––––––––––––––––––––––––––––––
DR11 -0.24 dB -13.52 dB 2:49 01-Hooked On a Feeling
DR12 -0.24 dB -14.14 dB 3:17 02-Raindrops Keep Fallin' on My Head
DR11 -0.24 dB -12.79 dB 5:45 03-Suspicious Minds
DR12 -0.24 dB -14.20 dB 3:26 04-Do What You Gotta Do
DR12 -0.72 dB -14.94 dB 2:56 05-Most of All
DR12 -0.72 dB -15.34 dB 2:55 06-No Love At All
DR13 -0.24 dB -16.07 dB 3:10 07-Brown Eyed Woman
DR12 -0.24 dB -13.82 dB 3:18 08-I Don't Know Any Better
DR13 -0.73 dB -17.21 dB 2:43 09-Everybody's Out of Town
DR12 -0.72 dB -16.27 dB 2:58 10-I Just Can't Help Believing
DR11 -0.91 dB -14.43 dB 3:17 11-Mighty Clouds of Joy
DR10 -0.48 dB -13.95 dB 4:01 12-Long Ago Tomorrow
DR12 -0.48 dB -16.52 dB 4:15 13-Rock and Roll Lullaby
DR13 -0.85 dB -18.27 dB 3:05 14-Roads
DR11 -0.71 dB -14.41 dB 2:58 15-Sweet Cherry Wine
DR12 -0.79 dB -15.88 dB 3:56 16-That's What Friends Are For
DR12 -0.24 dB -14.90 dB 3:24 17-Happier Than the Morning Sun
––––––––––––––––––––––––––––––––––––––––

Number of tracks: 17
Official DR value: DR12

Samplerate: 44100 Hz
Channels: 2
Bits per sample: 16
Bitrate: 853 kbps
Codec: FLAC
================================================================================

[CUETools log; Date: 22.08.2015 16:49:57; Version: 2.1.5]
[CTDB TOCID: b7KKl1beEZIwuGs8NzJS9cHzvqU-] found.
Track | CTDB Status
1 | (2/2) Accurately ripped
2 | (2/2) Accurately ripped
3 | (2/2) Accurately ripped
4 | (2/2) Accurately ripped
5 | (2/2) Accurately ripped
6 | (2/2) Accurately ripped
7 | (2/2) Accurately ripped
8 | (2/2) Accurately ripped
9 | (2/2) Accurately ripped
10 | (2/2) Accurately ripped
11 | (2/2) Accurately ripped
12 | (2/2) Accurately ripped
13 | (2/2) Accurately ripped
14 | (2/2) Accurately ripped
15 | (2/2) Accurately ripped
16 | (2/2) Accurately ripped
17 | (2/2) Accurately ripped
[AccurateRip ID: 002409bc-01c6f0d8-030da511] found.
Track [ CRC | V2 ] Status
01 [215facdc|f810af53] (2+0/9) Accurately ripped
02 [f550f16f|276bdb15] (2+0/9) Accurately ripped
03 [9dcf72c5|3b994149] (2+0/9) Accurately ripped
04 [4b54a2e7|ee1593ca] (2+0/9) Accurately ripped
05 [92bd59db|fe7ecdb1] (2+0/9) Accurately ripped
06 [58c8ec9a|bb92634f] (2+0/9) Accurately ripped
07 [08e49ac6|ced36c62] (2+0/9) Accurately ripped
08 [d306f005|37f63224] (2+0/9) Accurately ripped
09 [33f931ad|c3069894] (2+0/9) Accurately ripped
10 [7262d931|a3bcc8fb] (2+0/9) Accurately ripped
11 [ba3c3f2f|e31e163f] (2+0/9) Accurately ripped
12 [c0e8927c|02e620b0] (2+0/9) Accurately ripped
13 [14fde31c|d39564b0] (2+0/9) Accurately ripped
14 [e495f356|565580bb] (2+0/9) Accurately ripped
15 [1f7cab5f|f78f0561] (2+0/9) Accurately ripped
16 [b8e67ab4|a6820ce3] (2+0/9) Accurately ripped
17 [8f25d563|a69e2ee6] (2+0/9) Accurately ripped

Track Peak [ CRC32 ] [W/O NULL] [ LOG ]
– 97,2 [BF1DB80C] [8E33730D] CRC32
01 97,2 [447E66AA] [7A95E63F]
02 97,2 [1EE80D81] [463CB0F6]
03 97,2 [8FE3718E] [46C54154]
04 97,2 [062171D0] [2AE75C76]
05 92,0 [42C2857E] [1D589B67]
06 92,0 [2D092F2B] [97C0614B]
07 97,2 [B1984E4D] [559FC941]
08 97,2 [AED09F29] [F4A57828]
09 91,9 [87B2D8BA] [39B0CEF4]
10 92,0 [3B547B1E] [5849A1A5]
11 90,1 [A25D888C] [A93E5DE6]
12 94,6 [7D17AD2F] [334B556E]
13 94,6 [2131E478] [C5D331BF]
14 90,6 [F0242F6B] [8F10583E]
15 92,1 [35E8F6F6] [F26CA9E4]
16 91,3 [8CF64BDD] [E73DFC77]
17 97,2 [E90911ED] [57E4F586]

B.J. Thomas - The Very Best Of (1997)

All thanks go to SerBlues

Visit my blog!

Download:
Nitroflare: FLAC-part 1 | FLAC-part 2 | mp3