Subcategories

Babylon A.D. - Revelation Highway (2017)

Posted By: popsakov
Babylon A.D. - Revelation Highway (2017)

Babylon A.D. - Revelation Highway (2017)
EAC Rip | FLAC (Img) + Cue + Log ~ 325 Mb | Full Scans (PNG, 400 dpi) ~ 164 Mb | RAR 5% Recovery
Hard Rock, Glam Metal | Frontiers Records #FR CD 825

Babylon A.D. are proud to be one of the few hard rock bands from the late ‘80s/early ‘90s that are still operating with all of their original members: Derek Davis, vocalist/songwriter, guitarists and songwriters, John Mathews and Ron Freschi, drummer Jamey Pacheco and bassist Robb Reid. The band formed in 1987 and to celebrate their 30th Anniversary, the band released their new album, Revelation Highway on November 10, 2017. Featuring 10 tracks of the energetic classic hard rock the band is known for, Revelation Highway is sure to please fans of the band’s classic early material.

Formed in 1987, Babylon A.D. hail from San Francisco, CA. In 1988, Babylon A.D. caught the attention of Arista Records President and music industry legend “Clive Davis”, who signed them at a live showcase in Los Angeles. Their self-titled debut was released in fall of 1989 and included their hard rock classics “Bang Go The Bells”, “Hammer Swings Down”, and “The Kid Goes Wild”. The band scored three #1 songs at metal radio and reached gold sales status in the U.S. on their first release, which spent 38 weeks on the Billboard Top 200, peaking at #46. Their sophomore effort, “Nothing Sacred” was released in 1992 and produced two more Top Ten metal songs, “Bad Blood” and “So Savage the Heart”. Constant touring throughout the early 1990s and several MTV videos made them one of hard rock fans’ favorites.

After spending several years on Arista Records the band signed with Apocalypse Records in 1999 and released “Live In Your Face”, a compilation of live tracks recorded at various cities’ throughout the United States and on July 4, 2000, the band released their third studio album, “American Blitzkrieg”. In 2008, the band released “In The Beginning” on Apocalypse/Perris Records, a compilation of songs from the original demo tapes that secured them their recording contract with Arista Records. In 2014, Babylon A.D. returned with a four song E.P., “Lost Sessions/Fresno, CA 93”, a collection of songs that had been found on an old reel tape that had never been released. The band played several dates across the U.S. and also played the “Firefest Rock Festival” in Nottingham, England.

In March 2015, the band released a live record “LIVE@XXV” to celebrate their 25th Anniversary. That same year, they were invited to play the “Monsters of Rock Cruise” and select dates across the U.S. 2016 saw the band play more rock festivals along with The “Bang Your Head” Festival in Balingen Germany, Chicago’s “Rock’N’Skull” fest and once again the “Monsters of Rock Cruise”.
~ Frontiers Music Srl.
Babylon A.D. - Revelation Highway (2017)


***************

Babylon A.D. - Revelation Highway (2017)

Track List:

01. Crash And Burn [4:08]
02. Fool On Fire [4:05]
03. One Million Miles [4:05]
04. Tears [5:03]
05. She Likes To Give It [4:51]
06. Rags To Riches [4:11]
07. Last Time For Love [5:10]
08. I'm No Good For You [3:56]
09. Saturday Night [4:34]
10. Don't Tell Me Tonight [3:21]

Personnel:
Derek Davis - Lead Vocals, Keyboards, Acoustic Guitar
Ron Freschi - Guitars & Vocals
John Mathews - Guitars & Keyboards
Robb Reid - Bass & Vocals
James Pacheco - Drums & Percussion

Exact Audio Copy V1.0 beta 3 from 29. August 2011

EAC extraction logfile from 11. November 2017, 17:14

Babylon A.D. / Revelation Highway

Used drive : PIONEER BD-RW BDR-TD03 Adapter: 0 ID: 1

Read mode : Secure
Utilize accurate stream : Yes
Defeat audio cache : Yes
Make use of C2 pointers : No

Read offset correction : 667
Overread into Lead-In and Lead-Out : No
Fill up missing offset samples with silence : Yes
Delete leading and trailing silent blocks : No
Null samples used in CRC calculations : Yes
Used interface : Native Win32 interface for Win NT & 2000

Used output format : User Defined Encoder
Selected bitrate : 768 kBit/s
Quality : High
Add ID3 tag : No
Command line compressor : C:\Program Files (x86)\Exact Audio Copy\FLAC\FLAC.EXE
Additional command line options : -6 -V -T "ARTIST=%artist%" -T "TITLE=%title%" -T "ALBUM=%albumtitle%" -T "DATE=%year%" -T "TRACKNUMBER=%tracknr%" -T "GENRE=%genre%" -T "COMMENT=%comment%" -T "BAND=%albuminterpret%" -T "ALBUMARTIST=%albuminterpret%" -T "COMPOSER=%composer%" %haslyrics%–tag-from-file=LYRICS="%lyricsfile%"%haslyrics% -T "DISCNUMBER=%cdnumber%" -T "TOTALDISCS=%totalcds%" -T "TOTALTRACKS=%numtracks%" %hascover%–picture="%coverfile%"%hascover% %source% -o %dest%


TOC of the extracted CD

Track | Start | Length | Start sector | End sector
––––––––––––––––––––––––––––-
1 | 0:00.00 | 4:07.67 | 0 | 18591
2 | 4:07.67 | 4:04.50 | 18592 | 36941
3 | 8:12.42 | 4:04.70 | 36942 | 55311
4 | 12:17.37 | 5:02.73 | 55312 | 78034
5 | 17:20.35 | 4:51.03 | 78035 | 99862
6 | 22:11.38 | 4:11.22 | 99863 | 118709
7 | 26:22.60 | 5:10.16 | 118710 | 141975
8 | 31:33.01 | 3:56.01 | 141976 | 159676
9 | 35:29.02 | 4:33.42 | 159677 | 180193
10 | 40:02.44 | 3:21.10 | 180194 | 195278


Range status and errors

Selected range

Filename C:\Users\Deris\Desktop\Babylon17\Babylon A.D. - Revelation Highway.wav

Peak level 100.0 %
Extraction speed 1.6 X
Range quality 100.0 %
Test CRC C7484E0C
Copy CRC C7484E0C
Copy OK

No errors occurred


AccurateRip summary

Track 1 not present in database
Track 2 not present in database
Track 3 not present in database
Track 4 not present in database
Track 5 not present in database
Track 6 not present in database
Track 7 not present in database
Track 8 not present in database
Track 9 not present in database
Track 10 not present in database

None of the tracks are present in the AccurateRip database

End of status report

–– CUETools DB Plugin V2.1.3

[CTDB TOCID: qrFlh.3GoGMmUUyOpP7mBEEnt9I-] disk not present in database, Submit result: qrFlh.3GoGMmUUyOpP7mBEEnt9I- has been uploaded


==== Log checksum 62657BA1B29430A78A98C7477ACAEFD3C91FC7917224EE32354D5E4B7F22855A ====

foobar2000 1.3.16 / Dynamic Range Meter 1.1.1
log date: 2017-11-13 23:55:56

––––––––––––––––––––––––––––––––––––––––
Analyzed: Babylon A.D. / Revelation Highway
––––––––––––––––––––––––––––––––––––––––

DR Peak RMS Duration Track
––––––––––––––––––––––––––––––––––––––––
DR6 0.00 dB -7.00 dB 4:08 01-Crash And Burn
DR5 0.00 dB -6.34 dB 4:05 02-Fool On Fire
DR6 0.00 dB -6.89 dB 4:05 03-One Million Miles
DR6 0.00 dB -6.28 dB 5:03 04-Tears
DR6 0.00 dB -7.29 dB 4:51 05-She Likes To Give It
DR5 0.00 dB -6.16 dB 4:11 06-Rags To Riches
DR6 0.00 dB -6.63 dB 5:10 07-Last Time For Love
DR6 0.00 dB -6.94 dB 3:56 08-I'm No Good For You
DR6 0.00 dB -7.20 dB 4:34 09-Saturday Night
DR6 0.00 dB -6.43 dB 3:21 10-Don't Tell Me Tonight
––––––––––––––––––––––––––––––––––––––––

Number of tracks: 10
Official DR value: DR6

Samplerate: 44100 Hz
Channels: 2
Bits per sample: 16
Bitrate: 996 kbps
Codec: FLAC
================================================================================

[CUETools log; Date: 13.11.2017 23:56:02; Version: 2.1.5]
[CTDB TOCID: qrFlh.3GoGMmUUyOpP7mBEEnt9I-] found.
Track | CTDB Status
1 | (2/2) Accurately ripped
2 | (2/2) Accurately ripped
3 | (2/2) Accurately ripped
4 | (2/2) Accurately ripped
5 | (2/2) Accurately ripped
6 | (2/2) Accurately ripped
7 | (2/2) Accurately ripped
8 | (2/2) Accurately ripped
9 | (2/2) Accurately ripped
10 | (2/2) Accurately ripped
[AccurateRip ID: 00108ca4-0084f12c-800a2b0a] disk not present in database.

Track Peak [ CRC32 ] [W/O NULL] [ LOG ]
– 100,0 [C7484E0C] [718C2242] CRC32
01 100,0 [2E03F352] [E81687A8]
02 100,0 [78B24327] [36D70E22]
03 100,0 [D17927DB] [77834CC7]
04 100,0 [C7997B4E] [A9B68276]
05 100,0 [6302D280] [904312A0]
06 100,0 [83B9CA53] [18C82FE5]
07 100,0 [2C2791DE] [0D58C86C]
08 100,0 [DFACD0FC] [F2F93C25]
09 100,0 [4A039C51] [953DA9D8]
10 100,0 [5538675A] [ACF8748F]

Babylon A.D. - Revelation Highway (2017)

See also:
Babylon A.D. - Nothing Sacred (1992)

All thanks go to Boris1

>>> My Blog <<<

Download from icerbox.com: