Subcategories

Paolo Pandolfo - Bach: The Six Suites (2001)

Posted By: Ebisu
Paolo Pandolfo - Bach: The Six Suites (2001)

Paolo Pandolfo - Bach: The Six Suites (2001)
Classical | Eac. Flac, Img+Cue, Log | Covers | 702 MB
Label: Glossa | Catalog N.: GCD P30405 | TT: 144:07

Gamba virtuoso Paolo Pandolfo previously showed his powerful affinity for Bach on a 1994 Harmonia Mundi recording of the Sonatas for viola da gamba and harpsichord. Here, he offers his ambitious adaptations for gamba of the six Suites for Solo Cello–a project that if nothing else reveals both the felicities and awkward, ungraceful incompatibilities of this kinship of instruments and stylistic traditions. The first thing you may notice is that the keys–four of the six–are not the originals. For example the G major Suite No. 1, probably the most familiar of the set, is played in C major, the C minor Suite No. 5 is played in D minor, and so on. Although this may be a bit disorienting to listeners whose ears “know” the original keys, the reason Pandolfo has transposed them is not only to allow him to play the notes, but also to take full advantage of the gamba’s natural sonorities–in his words, “to let the instrument suggest the solutions suitable for each moment.” Indeed, we do hear the room-filling resonance and sympathetic vibrations produced by the lowest open strings, especially in the opening to the Fourth (G major) and Fifth (D minor) suites, and the overall benefit to the sonority certainly justifies these modifications. But these aren’t the only changes. Pandolfo explains that he has had to alter octaves in some places and occasionally, “voices” heard prominently in the cello versions “disappear”, and new voices “appear embellished, even though they did not exist or were merely implied.” Okay, but what all of this means to the listener is that hearing these versions of Bach’s revered solo cello suites will necessitate setting your preconceived notions aside and opening your mind and ears to a new experience of the music. (David Vernier)

Cast:
Paolo Pandolfo, viola da gamba

Tracklist:
CD1
01-06. Suite I, BWV 1007 C major
07-12. Suite III, BWV 1009, F major
13-18. Suite V, BWV 1011, d minor
CD2
01-06. Suite II, BWV 1008 d minor
07-12. Suite IV, BWV 1010, G major
13-18. Suite VI, BWV 1012, D major


Exact Audio Copy V1.0 beta 3 from 29. August 2011

Отчёт EAC об извлечении, выполненном 20. июля 2013, 22:03

Paolo Pandolfo / Bach - The Six Suites (Paolo Pandolfo, viola da gamba) - CD1

Дисковод: HL-DT-STDVDRAM GT33N Adapter: 1 ID: 0

Режим чтения : Достоверность
Использование точного потока : Да
Отключение кэша аудио : Да
Использование указателей C2 : Нет

Коррекция смещения при чтении : 103
Способность читать области Lead-in и Lead-out : Нет
Заполнение пропущенных сэмплов тишиной : Да
Удаление блоков с тишиной в начале и конце : Нет
При вычислениях CRC использовались нулевые сэмплы : Да
Интерфейс : Встроенный Win32-интерфейс для Win NT/2000

Выходной формат : Пользовательский кодировщик
Выбранный битрейт : 1024 kBit/s
Качество : Высокий
Добавление ID3-тега : Да
Утилита сжатия : C:\Program Files (x86)\Exact Audio Copy\Flac\flac.exe
Дополнительные параметры : -8 -V -T "TITLE=%title%" -T "ARTIST=%artist%" -T "ALBUMARTIST=%albumartist%" -T "ALBUM=%albumtitle%" -T "DATE=%year%" -T "TRACKTOTAL=%numtracks%" -T "GENRE=%genre%" -T "COMMENT=%comment%" -T "PERFORMER=%albuminterpret%" -T "COMPOSER=%composer%" %source% -o %dest%


TOC извлечённого CD

Трек | Старт | Длительность | Начальный сектор | Конечный сектор
––––––––––––––––––––––––––––––––––-
1 | 0:00.00 | 2:34.32 | 0 | 11581
2 | 2:34.32 | 5:06.65 | 11582 | 34596
3 | 7:41.22 | 2:50.60 | 34597 | 47406
4 | 10:32.07 | 3:29.10 | 47407 | 63091
5 | 14:01.17 | 3:22.63 | 63092 | 78304
6 | 17:24.05 | 1:46.55 | 78305 | 86309
7 | 19:10.60 | 4:14.35 | 86310 | 105394
8 | 23:25.20 | 4:44.15 | 105395 | 126709
9 | 28:09.35 | 3:54.35 | 126710 | 144294
10 | 32:03.70 | 4:19.57 | 144295 | 163776
11 | 36:23.52 | 3:42.50 | 163777 | 180476
12 | 40:06.27 | 3:38.15 | 180477 | 196841
13 | 43:44.42 | 5:59.03 | 196842 | 223769
14 | 49:43.45 | 5:26.20 | 223770 | 248239
15 | 55:09.65 | 2:28.52 | 248240 | 259391
16 | 57:38.42 | 3:48.70 | 259392 | 276561
17 | 61:27.37 | 4:23.03 | 276562 | 296289
18 | 65:50.40 | 2:29.32 | 296290 | 307496


Характеристики диапазона извлечения и сообщения об ошибках

Выбранный диапазон

Имя файла O:\!Rips\Bach - The Six Suites (Paolo Pandolfo, viola da gamba) - CD1.wav

Пиковый уровень 98.5 %
Скорость извлечения 2.2 X
Качество диапазона 100.0 %
CRC теста 033CA216
CRC копии 033CA216
Копирование… OK

Ошибок не произошло


AccurateRip: сводка

Трек 1 : извлечено точно (доверие 2) [0D93F7F9] (AR v2)
Трек 2 : извлечено точно (доверие 2) [91F7056C] (AR v2)
Трек 3 : извлечено точно (доверие 2) [9C473BE5] (AR v2)
Трек 4 : извлечено точно (доверие 2) [0A941C4A] (AR v2)
Трек 5 : извлечено точно (доверие 2) [C095242F] (AR v2)
Трек 6 : извлечено точно (доверие 2) [41AE8E20] (AR v2)
Трек 7 : извлечено точно (доверие 2) [29BDDAA1] (AR v2)
Трек 8 : извлечено точно (доверие 2) [64A8E720] (AR v2)
Трек 9 : извлечено точно (доверие 2) [A3CBCF09] (AR v2)
Трек 10 : извлечено точно (доверие 2) [A8DFA85A] (AR v2)
Трек 11 : извлечено точно (доверие 2) [DD4469F1] (AR v2)
Трек 12 : извлечено точно (доверие 2) [F0C8E17D] (AR v2)
Трек 13 : извлечено точно (доверие 2) [B01300CA] (AR v2)
Трек 14 : извлечено точно (доверие 2) [52B6D002] (AR v2)
Трек 15 : извлечено точно (доверие 2) [2147B14C] (AR v2)
Трек 16 : извлечено точно (доверие 2) [F11F0063] (AR v2)
Трек 17 : извлечено точно (доверие 2) [879F288A] (AR v2)
Трек 18 : извлечено точно (доверие 2) [720A7A11] (AR v2)

Все треки извлечены точно

Конец отчёта

==== Контрольная сумма отчёта C565FB2DA77382C699C3410C0BED19B661029A3D0130C3F387894604AA827515 ====


Exact Audio Copy V1.0 beta 3 from 29. August 2011

Отчёт EAC об извлечении, выполненном 20. июля 2013, 20:53

Paolo Pandolfo / Bach - The Six Suites (Paolo Pandolfo, viola da gamba) - CD2

Дисковод: HL-DT-STDVDRAM GT33N Adapter: 1 ID: 0

Режим чтения : Достоверность
Использование точного потока : Да
Отключение кэша аудио : Да
Использование указателей C2 : Нет

Коррекция смещения при чтении : 103
Способность читать области Lead-in и Lead-out : Нет
Заполнение пропущенных сэмплов тишиной : Да
Удаление блоков с тишиной в начале и конце : Нет
При вычислениях CRC использовались нулевые сэмплы : Да
Интерфейс : Встроенный Win32-интерфейс для Win NT/2000

Выходной формат : Пользовательский кодировщик
Выбранный битрейт : 1024 kBit/s
Качество : Высокий
Добавление ID3-тега : Да
Утилита сжатия : C:\Program Files (x86)\Exact Audio Copy\Flac\flac.exe
Дополнительные параметры : -8 -V -T "TITLE=%title%" -T "ARTIST=%artist%" -T "ALBUMARTIST=%albumartist%" -T "ALBUM=%albumtitle%" -T "DATE=%year%" -T "TRACKTOTAL=%numtracks%" -T "GENRE=%genre%" -T "COMMENT=%comment%" -T "PERFORMER=%albuminterpret%" -T "COMPOSER=%composer%" %source% -o %dest%


TOC извлечённого CD

Трек | Старт | Длительность | Начальный сектор | Конечный сектор
––––––––––––––––––––––––––––––––––-
1 | 0:00.00 | 3:52.17 | 0 | 17416
2 | 3:52.17 | 3:28.30 | 17417 | 33046
3 | 7:20.47 | 2:25.33 | 33047 | 43954
4 | 9:46.05 | 5:23.00 | 43955 | 68179
5 | 15:09.05 | 2:34.37 | 68180 | 79766
6 | 17:43.42 | 2:56.08 | 79767 | 92974
7 | 20:39.50 | 3:59.45 | 92975 | 110944
8 | 24:39.20 | 5:55.20 | 110945 | 137589
9 | 30:34.40 | 3:30.45 | 137590 | 153384
10 | 34:05.10 | 5:17.17 | 153385 | 177176
11 | 39:22.27 | 4:10.60 | 177177 | 195986
12 | 43:33.12 | 2:55.65 | 195987 | 209176
13 | 46:29.02 | 4:09.70 | 209177 | 227921
14 | 50:38.72 | 6:40.58 | 227922 | 257979
15 | 57:19.55 | 3:54.42 | 257980 | 275571
16 | 61:14.22 | 5:17.15 | 275572 | 299361
17 | 66:31.37 | 4:55.48 | 299362 | 321534
18 | 71:27.10 | 4:15.10 | 321535 | 340669


Характеристики диапазона извлечения и сообщения об ошибках

Выбранный диапазон

Имя файла O:\!Rips\Bach - The Six Suites (Paolo Pandolfo, viola da gamba) - CD2.wav

Пиковый уровень 97.5 %
Скорость извлечения 2.3 X
Качество диапазона 100.0 %
CRC теста D4B9D41E
CRC копии D4B9D41E
Копирование… OK

Ошибок не произошло


AccurateRip: сводка

Трек 1 : извлечено точно (доверие 5) [0FD1A506] (AR v1)
Трек 2 : извлечено точно (доверие 5) [8196C070] (AR v1)
Трек 3 : извлечено точно (доверие 5) [A0F44ACA] (AR v1)
Трек 4 : извлечено точно (доверие 5) [F9180D42] (AR v1)
Трек 5 : извлечено точно (доверие 5) [C9421422] (AR v1)
Трек 6 : извлечено точно (доверие 5) [312E73FD] (AR v1)
Трек 7 : извлечено точно (доверие 5) [D6FC9C74] (AR v1)
Трек 8 : извлечено точно (доверие 5) [BE6EA54E] (AR v1)
Трек 9 : извлечено точно (доверие 5) [0B30AA89] (AR v1)
Трек 10 : извлечено точно (доверие 5) [0652F21D] (AR v1)
Трек 11 : извлечено точно (доверие 5) [DB6D1AEB] (AR v1)
Трек 12 : извлечено точно (доверие 5) [18156246] (AR v1)
Трек 13 : извлечено точно (доверие 5) [4BC1EB88] (AR v1)
Трек 14 : извлечено точно (доверие 5) [666E9814] (AR v1)
Трек 15 : извлечено точно (доверие 5) [93D21E0B] (AR v1)
Трек 16 : извлечено точно (доверие 5) [4F95C718] (AR v1)
Трек 17 : извлечено точно (доверие 5) [C6A1B14E] (AR v1)
Трек 18 : извлечено точно (доверие 5) [E7872ADE] (AR v1)

Все треки извлечены точно

Конец отчёта

==== Контрольная сумма отчёта 66890AFB3684EE6F2B4DF30DBD935F90586CFE4017D48E08604ECACD0751E759 ====


“Thanks to the original releaser"