Subcategories

Bach CPE - Organ Concertos & Sonatas (Rainer Oster)

Posted By: Sowulo
Bach CPE - Organ Concertos & Sonatas (Rainer Oster)

Bach CPE - Organ Concertos & Sonatas (Rainer Oster) [2014/2003]
EAC Rip | FLAC, IMG+CUE, LOG | Covers | 2cd, 576 MB
Classical | Label: DHM | Catalog Number: 8843021622 | TT: CD1: 54:18; CD2: 71:24

Carl Philipp Emanuel Bach (8 March 1714 – 14 December 1788) was a German Classical period musician and composer, the fifth child and second (surviving) son of Johann Sebastian Bach and Maria Barbara Bach. His second name was given in honor of his godfather Georg Philipp Telemann, a friend of Emanuel's father.
Emanuel Bach was an influential composer working at a time of transition between his father's baroque style and the classical and romantic styles that followed it. His personal approach, an expressive and often turbulent one known as empfindsamer Stil or 'sensitive style', applied the principles of rhetoric and drama to musical structures. Bach's dynamism stands in deliberate contrast to the more mannered rococo style also then in vogue.
Performer:
Rainer Oster, organ
Ensemble Parlando
Rainer Oster, Margarete Adorf, direction

Tracklisting:
CD1
01. Concerto in G major for organ & strins, Wq 34 (H 444): I. Allegro di molto
02. II. Largo
03. III. Presto
04. Sinfonia in C major for strings & b.c., Wq 182/3 (H 659): I. Allegro assai - Adagio
05. II. Allegretto
06. Concerto in E flat major for organ, strins & 2 horns, Wq 35 (H 446): I. Allegro moderato
07. II. Adagio sostenuto con sordini
08. III. Allegro
CD2
01. Sonata in A minor for organ, Wq 70/4 (H 85): I. Allegro assai
02. II. Adagio
03. III. Allegro
04. Sonata in F major for organ, Wq 70/3 (H 84): I. Allegro
05. II. Largo
06. III. Allegretto
07. Sonata in G minor for organ, Wq 70/6 (H 87): I. Allegro moderato
08. II. Adagio
09. III. Allegro
10. Sonata in D major for organ, Wq 70/5 (H 86): I. Allegro
11. II. Largo
12. III. Allegretto

Exact Audio Copy V1.0 beta 3 from 29. August 2011

EAC extraction logfile from 3. July 2014, 18:54

Rainer Oster - Ensemble Parlando / Bach CPE - Organ Concertos CD1

Used drive : PIONEER DVD-RW DVR-218L Adapter: 0 ID: 0

Read mode : Secure
Utilize accurate stream : Yes
Defeat audio cache : Yes
Make use of C2 pointers : No

Read offset correction : 6
Overread into Lead-In and Lead-Out : No
Fill up missing offset samples with silence : Yes
Delete leading and trailing silent blocks : No
Null samples used in CRC calculations : Yes
Used interface : Native Win32 interface for Win NT & 2000

Used output format : User Defined Encoder
Selected bitrate : 128 kBit/s
Quality : High
Add ID3 tag : No
Command line compressor : C:\Program Files (x86)\Exact Audio Copy\Flac\flac.exe
Additional command line options : -V -8 -T "Date=%year%" -T "Genre=%genre%" %source%


TOC of the extracted CD

Track | Start | Length | Start sector | End sector
––––––––––––––––––––––––––––-
1 | 0:00.00 | 11:13.25 | 0 | 50499
2 | 11:13.25 | 8:17.35 | 50500 | 87809
3 | 19:30.60 | 5:35.67 | 87810 | 113001
4 | 25:06.52 | 6:08.60 | 113002 | 140661
5 | 31:15.37 | 4:24.72 | 140662 | 160533
6 | 35:40.34 | 6:41.73 | 160534 | 190681
7 | 42:22.32 | 7:34.13 | 190682 | 224744
8 | 49:56.45 | 4:21.70 | 224745 | 244389


Range status and errors

Selected range

Filename C:\Program Files (x86)\Exact Audio Copy\Flac\Bach CPE - Organ Concertos CD1.wav

Peak level 100.0 %
Extraction speed 1.8 X
Range quality 100.0 %
Test CRC 4B3FDD46
Copy CRC 4B3FDD46
Copy OK

No errors occurred


AccurateRip summary

Track 1 accurately ripped (confidence 4) [71BB3A74] (AR v2)
Track 2 accurately ripped (confidence 4) [199EA7AC] (AR v2)
Track 3 accurately ripped (confidence 4) [65934D3B] (AR v2)
Track 4 accurately ripped (confidence 4) [2814CED9] (AR v2)
Track 5 accurately ripped (confidence 4) [882590CC] (AR v2)
Track 6 accurately ripped (confidence 4) [5CC4A52E] (AR v2)
Track 7 accurately ripped (confidence 4) [EEDB0DD2] (AR v2)
Track 8 accurately ripped (confidence 4) [D74B7E5D] (AR v2)

All tracks accurately ripped

End of status report

–– CUETools DB Plugin V2.1.3

[CTDB TOCID: Cg5_h9atqM7q3rDECaYckr5N8_0-] found, Submit result: Cg5_h9atqM7q3rDECaYckr5N8_0- has been confirmed
[ed21e443] (2/2) Accurately ripped


==== Log checksum 9AAC7F156E0A45FA26C49D5613DFF5EFB2178348107E8CD61B98621D6AEA085F ====

Exact Audio Copy V1.0 beta 3 from 29. August 2011

EAC extraction logfile from 3. July 2014, 20:30

Rainer Oster - Ensemble Parlando / Bach CPE - Organ Concertos CD2

Used drive : PIONEER DVD-RW DVR-218L Adapter: 0 ID: 0

Read mode : Secure
Utilize accurate stream : Yes
Defeat audio cache : Yes
Make use of C2 pointers : No

Read offset correction : 6
Overread into Lead-In and Lead-Out : No
Fill up missing offset samples with silence : Yes
Delete leading and trailing silent blocks : No
Null samples used in CRC calculations : Yes
Used interface : Native Win32 interface for Win NT & 2000

Used output format : User Defined Encoder
Selected bitrate : 128 kBit/s
Quality : High
Add ID3 tag : No
Command line compressor : C:\Program Files (x86)\Exact Audio Copy\Flac\flac.exe
Additional command line options : -V -8 -T "Date=%year%" -T "Genre=%genre%" %source%


TOC of the extracted CD

Track | Start | Length | Start sector | End sector
––––––––––––––––––––––––––––-
1 | 0:00.00 | 6:29.05 | 0 | 29179
2 | 6:29.05 | 4:30.47 | 29180 | 49476
3 | 10:59.52 | 5:30.15 | 49477 | 74241
4 | 16:29.67 | 8:38.55 | 74242 | 113146
5 | 25:08.47 | 3:44.48 | 113147 | 129994
6 | 28:53.20 | 6:32.37 | 129995 | 159431
7 | 35:25.57 | 7:39.03 | 159432 | 193859
8 | 43:04.60 | 4:39.67 | 193860 | 214851
9 | 47:44.52 | 6:56.53 | 214852 | 246104
10 | 54:41.30 | 7:03.32 | 246105 | 277861
11 | 61:44.62 | 4:26.05 | 277862 | 297816
12 | 66:10.67 | 6:05.23 | 297817 | 325214


Range status and errors

Selected range

Filename C:\Program Files (x86)\Exact Audio Copy\Flac\Bach CPE - Organ Concertos CD2.wav

Peak level 100.0 %
Extraction speed 2.0 X
Range quality 100.0 %
Test CRC 101AB8DD
Copy CRC 101AB8DD
Copy OK

No errors occurred


AccurateRip summary

Track 1 accurately ripped (confidence 4) [694C75C7] (AR v2)
Track 2 accurately ripped (confidence 4) [2FC8A99A] (AR v2)
Track 3 accurately ripped (confidence 4) [7E10B10F] (AR v2)
Track 4 accurately ripped (confidence 4) [D551DF87] (AR v2)
Track 5 accurately ripped (confidence 4) [34229707] (AR v2)
Track 6 accurately ripped (confidence 4) [FF79F582] (AR v2)
Track 7 accurately ripped (confidence 4) [E76E2B59] (AR v2)
Track 8 accurately ripped (confidence 4) [8317A17D] (AR v2)
Track 9 accurately ripped (confidence 4) [86DC4BFF] (AR v2)
Track 10 accurately ripped (confidence 4) [CC8E7C83] (AR v2)
Track 11 accurately ripped (confidence 4) [EF98CE70] (AR v2)
Track 12 accurately ripped (confidence 4) [0D8B4EA5] (AR v2)

All tracks accurately ripped

End of status report

–– CUETools DB Plugin V2.1.3

[CTDB TOCID: .UXqvGEd1DB7PvJt5yMCVm7YDxk-] found, Submit result: .UXqvGEd1DB7PvJt5yMCVm7YDxk- has been confirmed
[c3f0c4e7] (2/2) Accurately ripped


==== Log checksum B7AFD286A31072080C8060BB2105B8EDC6A17C20C2DF12DABEC9A8E46FF7FE09 ====