Subcategories

Johann Sebastian Bach - English Suites - Gustav Leonhardt (1984)

Posted By: generale79
Johann Sebastian Bach - English Suites  - Gustav Leonhardt (1984)

J. S. Bach - English Suites • Englische Suiten - Gustav Leonhardt [1984]
Baroque | EAC Rip | APE+CUE+LOG | HQ Scans | 2 CD | 673 MB | RS
EMI CDS 7490008 | 1987

2nd recording of English Suites BWV 806-811 by G. Leonhardt. Recorded 2.-3.V. & 3.-4.IX.1984 at Doopsgezinde Gemeente Kerk, Haarlem, Holland. Without repeats.
"Compared with his new recording the earlier one is sombre, rather deliberate and superficially only, perhaps, lacking in good humour. In the intervening passage of time he seems to have cultivated a livelier approach to these Suites; they flow more naturally and he has lost some of the apparent stylistic self-consciousness which gave the impression of a certain wooden-ness in his playing."
Johann Sebastian Bach (1685-1750)

English Suites • Englische Suiten

CD1
01-06 Suite No.1 in A major, BWV 806
07-12 Suite No.2 in A minor, BWV 807
13-18 Suite No.3 in G minor, BWV 808
Total Playing Time: 45'15


CD1
01-06 Suite No.4 in F major, BWV 809
07-12 Suite No.5 in E minor, BWV 810
13-18 Suite No.6 in D minor, BWV 811
Total Playing Time: 50'43


Harpsichord Nicholas Lefebvre, Rouen 1755; restored by Martin Skowronneck, Bremen 1984

Gustav Leonhardt harpsichord

Exact Audio Copy V0.99 prebeta 5 from 4. May 2009

EAC extraction logfile from 9. July 2010, 10:58

Gustav Leonhardt / J. S. Bach - English Suites CD1

Used drive : HL-DT-STDVD-RAM GH22NP20 Adapter: 0 ID: 0

Read mode : Secure
Utilize accurate stream : Yes
Defeat audio cache : No
Make use of C2 pointers : No

Read offset correction : 102
Overread into Lead-In and Lead-Out : No
Fill up missing offset samples with silence : Yes
Delete leading and trailing silent blocks : No
Null samples used in CRC calculations : No
Used interface : Native Win32 interface

for Win NT & 2000

Used output format : Monkey's Audio Lossless Encoder v3.99 DLL
Sample format : Normal Lossless Compression


TOC of the extracted CD

Track | Start | Length | Start sector | End sector
––––––––––––––––––––––––––––-
1 | 0:00.00 | 2:04.01 | 0 | 9300
2 | 2:04.01 | 2:50.01 | 9301 | 22051
3 | 4:54.02 | 4:17.01 | 22052 | 41327
4 | 9:11.03 | 2:25.01 | 41328 | 52203
5 | 11:36.04 | 2:44.01 | 52204 | 64504
6 | 14:20.05 | 1:25.01 | 64505 | 70880
7 | 15:45.06 | 5:10.01 | 70881 | 94131
8 | 20:55.07 | 2:19.01 | 94132 | 104557
9 | 23:14.08 | 0:58.01 | 104558 | 108908
10 | 24:12.09 | 3:52.01 | 108909 | 126309
11 | 28:04.10 | 2:56.01 | 126310 | 139510
12 | 31:00.11 | 1:22.01 | 139511 | 145661
13 | 32:22.12 | 3:18.01 | 145662 | 160512
14 | 35:40.13 | 2:22.01 | 160513 | 171163
15 | 38:02.14 | 1:16.01 | 171164 | 176864
16 | 39:18.15 | 3:20.01 | 176865 | 191865
17 | 42:38.16 | 1:57.01 | 191866 | 200641
18 | 44:35.17 | 1:30.01 | 200642 | 207392


Range status and errors

Selected range

Filename K:\Gustav Leonhardt - J. S. Bach - English Suites.ape

Peak level 99.9 %
Range quality 100.0 %
Test CRC B10B25CC
Copy CRC B10B25CC
Copy OK

No errors occurred

Exact Audio Copy V0.99 prebeta 5 from 4. May 2009

EAC extraction logfile from 9. July 2010, 12:46

Gustav Leonhardt / J. S. Bach - English Suites CD2

Used drive : HL-DT-STDVD-RAM GH22NP20 Adapter: 0 ID: 0

Read mode : Secure
Utilize accurate stream : Yes
Defeat audio cache : No
Make use of C2 pointers : No

Read offset correction : 102
Overread into Lead-In and Lead-Out : No
Fill up missing offset samples with silence : Yes
Delete leading and trailing silent blocks : No
Null samples used in CRC calculations : No
Used interface : Native Win32 interface

for Win NT & 2000

Used output format : Monkey's Audio Lossless Encoder v3.99 DLL
Sample format : Normal Lossless Compression


TOC of the extracted CD

Track | Start | Length | Start sector | End sector
––––––––––––––––––––––––––––-
1 | 0:00.00 | 2:16.00 | 0 | 10199
2 | 2:16.00 | 1:00.00 | 10200 | 14699
3 | 3:16.00 | 1:47.00 | 14700 | 22724
4 | 5:03.00 | 2:44.00 | 22725 | 35024
5 | 7:47.00 | 4:40.00 | 35025 | 56024
6 | 12:27.00 | 3:10.00 | 56025 | 70274
7 | 15:37.00 | 2:25.00 | 70275 | 81149
8 | 18:02.00 | 1:11.00 | 81150 | 86474
9 | 19:13.00 | 1:39.00 | 86475 | 93899
10 | 20:52.00 | 2:19.00 | 93900 | 104324
11 | 23:11.00 | 5:23.00 | 104325 | 128549
12 | 28:34.00 | 1:56.00 | 128550 | 137249
13 | 30:30.00 | 2:39.00 | 137250 | 149174
14 | 33:09.00 | 1:11.00 | 149175 | 154499
15 | 34:20.00 | 2:44.00 | 154500 | 166799
16 | 37:04.00 | 2:03.00 | 166800 | 176024
17 | 39:07.00 | 8:32.00 | 176025 | 214424
18 | 47:39.00 | 2:56.00 | 214425 | 227624


Range status and errors

Selected range

Filename K:\Gustav Leonhardt - J. S. Bach - English Suites CD2.ape

Peak level 100.0 %
Range quality 100.0 %
Test CRC 8CE0E194
Copy CRC 8CE0E194
Copy OK

No errors occurred



Visit my blog of Baroque Music