Subcategories

Andras Schiff, Chamber Orchestra of Europe, Camerata Bern - Bach: Complete Keyboard Concertos [2010/1989-1993]

Posted By: Vilboa
Andras Schiff, Chamber Orchestra of Europe, Camerata Bern - Bach: Complete Keyboard Concertos [2010/1989-1993]

Bach J.S. - Complete Keyboard Concertos (Andras Schiff) [2010/1989-1993]
Classical | DECCA 478 2363 DC4 | TT: 55.02+52.48+62.23+55.53 | EAC (FLAC, cue, log) | Covers | 915 Mb

For those that prefer to hear these works on piano rather than harpsichord, you can hardly find more enjoyable, illuminating, and elegant performances than these. Andras Schiff has surely become one of the most prominent proponents of J.S. Bach on the piano and its hard to believe these particular discs were ever allowed to slip from commercial availability. Their re-issue here is reason to rejoice. It is with good reason that another chapter in the career of Andras Schiff has started recently with his new series of Beethoven Sonatas on ECM, and of course more Bach. He is a true master, and the Bach Concerto recordings with the Chamber Orchestra of Europe, led by Schiff himself, exemplify this and count as essential listening.

Cast:
Chamber Orchestra of Europe (cd1&2)
Camerata Bern (cd3&4)
András Schiff, piano & director


CD1:
Concerto in D minor, BWV 1052
1. I. Allegro
2. II. Adagio
3. III. Allegro
Concerto in E major, BWV 1053
4. I. [Allegro]
5. II. Siciliano
6. III. Allegro
Concerto in D major, BWV 1054
7. I. [Allegro]
8. II. Adagio e piano sempre
9. III. Allegro
CD2:
Concerto in A major, BWV 1055
01. I. Allegro
02. II. Larghetto
03. III. Allegro ma non tanto
Concerto in F minor, BWV 1056
04. I. [Allegro]
05. II. Largo
06. III. Presto
Concerto in F major, BWV 1057
07. I. [Allegro]
08. II. Andante
09. III. Allegro assai
Concerto in G minor, BWV 1058
10. I. [Allegro]
11. II. Andante
12. III. Allegro assai
CD3:
Italian Concerto in F major, BWV 971
01. I. [Allegro]
02. II. Andante
03. III. Presto
Concerto in C minor, BWV 1060
04. I. Allegro
05. II. Adagio
06. III. Allegro
Concerto in C major, BWV 1061
07. I. [Allegro]
08. II. Adagio ovvero Largo
09. III. Fuga
Concerto in C minor, BWV 1062
10. I. [Allegro]
11. II. Andante
12. III. Allegro assai
CD4:
Concerto in A minor, BWV 1044
1. I. Allegro
2. II. Adagio ma non tanto e dolce
3. III. Alla breve
Concerto in D minor, BWV 1063
4. I. [Allegro]
5. II. Alla siciliana
6. III. Allegro
Concerto in C major, BWV 1064
7. I. Allegro
8. II. Adagio
9. III. Allegro


Exact Audio Copy V1.0 beta 3 from 29. August 2011

EAC extraction logfile from 26. July 2017, 18:42

András Schiff, The Chamber Orchestra of Europe / Bach - Keyboard Concertos CD1

Used drive : PIONEER BD-RW BDR-207M Adapter: 0 ID: 0

Read mode : Secure
Utilize accurate stream : Yes
Defeat audio cache : Yes
Make use of C2 pointers : No

Read offset correction : 667
Overread into Lead-In and Lead-Out : No
Fill up missing offset samples with silence : Yes
Delete leading and trailing silent blocks : No
Null samples used in CRC calculations : Yes
Used interface : Native Win32 interface for Win NT & 2000

Used output format : User Defined Encoder
Selected bitrate : 128 kBit/s
Quality : High
Add ID3 tag : No
Command line compressor : C:\Program Files\Exact Audio Copy\Flac\flac.exe
Additional command line options : -V -8 -T "Date=%year%" -T "Genre=%genre%" %source%


TOC of the extracted CD

Track | Start | Length | Start sector | End sector
––––––––––––––––––––––––––––-
1 | 0:00.33 | 8:06.50 | 33 | 36532
2 | 8:07.08 | 7:01.37 | 36533 | 68144
3 | 15:08.45 | 7:46.63 | 68145 | 103157
4 | 22:55.33 | 8:12.37 | 103158 | 140094
5 | 31:07.70 | 4:09.13 | 140095 | 158782
6 | 35:17.08 | 6:29.12 | 158783 | 187969
7 | 41:46.20 | 7:30.25 | 187970 | 221744
8 | 49:16.45 | 5:46.13 | 221745 | 247707
9 | 55:02.58 | 2:59.50 | 247708 | 261182


Range status and errors

Selected range

Filename C:\Bach - Keyboard Concertos CD1.wav

Peak level 88.3 %
Extraction speed 4.4 X
Range quality 100.0 %
Test CRC 954BF693
Copy CRC 954BF693
Copy OK

No errors occurred

End of status report

==== Log checksum 843CA7EFFDFC2518D449FF7D12D0FB1FFD8E7730BC2730180C7330D5CBC994C7 ====


Exact Audio Copy V1.0 beta 3 from 29. August 2011

EAC extraction logfile from 26. July 2017, 19:14

András Schiff, The Chamber Orchestra of Europe / Bach - Keyboard Concertos CD2

Used drive : PIONEER BD-RW BDR-207M Adapter: 0 ID: 0

Read mode : Secure
Utilize accurate stream : Yes
Defeat audio cache : Yes
Make use of C2 pointers : No

Read offset correction : 667
Overread into Lead-In and Lead-Out : No
Fill up missing offset samples with silence : Yes
Delete leading and trailing silent blocks : No
Null samples used in CRC calculations : Yes
Used interface : Native Win32 interface for Win NT & 2000

Used output format : User Defined Encoder
Selected bitrate : 128 kBit/s
Quality : High
Add ID3 tag : No
Command line compressor : C:\Program Files\Exact Audio Copy\Flac\flac.exe
Additional command line options : -V -8 -T "Date=%year%" -T "Genre=%genre%" %source%


TOC of the extracted CD

Track | Start | Length | Start sector | End sector
––––––––––––––––––––––––––––-
1 | 0:00.33 | 4:03.50 | 33 | 18307
2 | 4:04.08 | 4:53.00 | 18308 | 40282
3 | 8:57.08 | 4:29.00 | 40283 | 60457
4 | 13:26.08 | 3:35.00 | 60458 | 76582
5 | 17:01.08 | 2:56.12 | 76583 | 89794
6 | 19:57.20 | 3:37.00 | 89795 | 106069
7 | 23:34.20 | 7:12.00 | 106070 | 138469
8 | 30:46.20 | 3:53.38 | 138470 | 155982
9 | 34:39.58 | 4:53.62 | 155983 | 178019
10 | 39:33.45 | 3:40.50 | 178020 | 194569
11 | 43:14.20 | 5:41.00 | 194570 | 220144
12 | 48:55.20 | 3:53.13 | 220145 | 237632


Range status and errors

Selected range

Filename C:\Bach - Keyboard Concertos CD2.wav

Peak level 84.8 %
Extraction speed 4.3 X
Range quality 100.0 %
Test CRC 7DDF8CFA
Copy CRC 7DDF8CFA
Copy OK

No errors occurred

End of status report

==== Log checksum 5A8D8A9D7825CF931E376D86CE04C8C213CDE100FAA7D66A0C6B6154823FA288 ====


Exact Audio Copy V1.0 beta 3 from 29. August 2011

EAC extraction logfile from 26. July 2017, 19:59

András Schiff, Camerata Bern / Bach - Keyboard Concertos CD3

Used drive : PIONEER BD-RW BDR-207M Adapter: 0 ID: 0

Read mode : Secure
Utilize accurate stream : Yes
Defeat audio cache : Yes
Make use of C2 pointers : No

Read offset correction : 667
Overread into Lead-In and Lead-Out : No
Fill up missing offset samples with silence : Yes
Delete leading and trailing silent blocks : No
Null samples used in CRC calculations : Yes
Used interface : Native Win32 interface for Win NT & 2000

Used output format : User Defined Encoder
Selected bitrate : 128 kBit/s
Quality : High
Add ID3 tag : No
Command line compressor : C:\Program Files\Exact Audio Copy\Flac\flac.exe
Additional command line options : -V -8 -T "Date=%year%" -T "Genre=%genre%" %source%


TOC of the extracted CD

Track | Start | Length | Start sector | End sector
––––––––––––––––––––––––––––-
1 | 0:00.00 | 3:58.53 | 0 | 17902
2 | 3:58.53 | 4:47.66 | 17903 | 39493
3 | 8:46.44 | 3:39.28 | 39494 | 55946
4 | 12:25.72 | 5:50.06 | 55947 | 82202
5 | 18:16.03 | 6:11.31 | 82203 | 110058
6 | 24:27.34 | 3:35.44 | 110059 | 126227
7 | 28:03.03 | 7:26.00 | 126228 | 159677
8 | 35:29.03 | 5:47.02 | 159678 | 185704
9 | 41:16.05 | 5:43.73 | 185705 | 211502
10 | 47:00.03 | 3:50.00 | 211503 | 228752
11 | 50:50.03 | 6:34.00 | 228753 | 258302
12 | 57:24.03 | 4:59.68 | 258303 | 280795


Range status and errors

Selected range

Filename C:\Bach - Keyboard Concertos CD3.wav

Peak level 93.3 %
Extraction speed 4.5 X
Range quality 100.0 %
Test CRC 408BAE44
Copy CRC 408BAE44
Copy OK

No errors occurred

End of status report

==== Log checksum 8FF1597B0738919B1D1CABEB23732BAFB968CDE1CDD23F84463E547F5BD6883C ====


Exact Audio Copy V1.0 beta 3 from 29. August 2011

EAC extraction logfile from 26. July 2017, 20:28

András Schiff, Camerata Bern / Bach - Keyboard Concertos CD4

Used drive : PIONEER BD-RW BDR-207M Adapter: 0 ID: 0

Read mode : Secure
Utilize accurate stream : Yes
Defeat audio cache : Yes
Make use of C2 pointers : No

Read offset correction : 667
Overread into Lead-In and Lead-Out : No
Fill up missing offset samples with silence : Yes
Delete leading and trailing silent blocks : No
Null samples used in CRC calculations : Yes
Used interface : Native Win32 interface for Win NT & 2000

Used output format : User Defined Encoder
Selected bitrate : 128 kBit/s
Quality : High
Add ID3 tag : No
Command line compressor : C:\Program Files\Exact Audio Copy\Flac\flac.exe
Additional command line options : -V -8 -T "Date=%year%" -T "Genre=%genre%" %source%


TOC of the extracted CD

Track | Start | Length | Start sector | End sector
––––––––––––––––––––––––––––-
1 | 0:00.00 | 9:04.15 | 0 | 40814
2 | 9:04.15 | 5:27.58 | 40815 | 65397
3 | 14:31.73 | 6:56.72 | 65398 | 96669
4 | 21:28.70 | 5:39.48 | 96670 | 122142
5 | 27:08.43 | 4:47.00 | 122143 | 143667
6 | 31:55.43 | 5:10.67 | 143668 | 166984
7 | 37:06.35 | 7:11.40 | 166985 | 199349
8 | 44:18.00 | 6:41.45 | 199350 | 229469
9 | 50:59.45 | 4:53.65 | 229470 | 251509


Range status and errors

Selected range

Filename C:\Bach - Keyboard Concertos CD4.wav

Peak level 91.3 %
Extraction speed 4.4 X
Range quality 100.0 %
Test CRC 09C65E40
Copy CRC 09C65E40
Copy OK

No errors occurred

End of status report

==== Log checksum 38F6C0FDE9C8F12A537074FDA9349FC2713B6F4D35C3C0994AC6A5C09D4C8025 ====