Subcategories

J.S.Bach - Mass in B minor, BWV 232 (S.Ozawa)

Posted By: pmarkov
J.S.Bach - Mass in B minor, BWV 232 (S.Ozawa)

J.S.Bach - Mass in B minor, BWV 232
Tokyo Opera Singers, Saito Kinen Orchestra, Conductor: Seiji Ozawa

2CD | APE + CUE + LOG | Cover + Booklet (in Japanese) | 456.8Mb | 51:57 + 50:31 | Philips 2000

Contents:
Johann Sebastian Bach (1685-1750)

Mass in B minor BWV 232
Performer:
Barbara Bonney (Soprano),
John Mark Ainsley (Tenor),
Angelika Kirchschlager (Mezzo Soprano),
Alastair Miles (Bass),
Angelika Kirchschlager (Soprano)
Conductor: Seiji Ozawa
Orchestra/Ensemble: Tokyo Opera Singers, Saito Kinen Orchestra

Exact Audio Copy V0.99 prebeta 4 from 23. January 2008

EAC extraction logfile from 12. September 2008, 19:32

Seiji Ozawa, Saito Kinen Orchestra, etc. / Mass in B minor, BWV 232 - CD 1

Used drive : TSSTcorpCD/DVDW TS-H652D Adapter: 1 ID: 0

Read mode : Secure
Utilize accurate stream : Yes
Defeat audio cache : No
Make use of C2 pointers : Yes

Combined read/write offset correction : 0
Overread into Lead-In and Lead-Out : No
Fill up missing offset samples with silence : Yes
Delete leading and trailing silent blocks : No
Null samples used in CRC calculations : No
Used interface : Native Win32 interface for Win NT & 2000
Gap handling : Not detected, thus appended to previous track

Used output format : User Defined Encoder
Selected bitrate : 768 kBit/s
Quality : High
Add ID3 tag : No
Command line compressor : C:\Program Files\Exact Audio Copy\FLAC\FLAC.EXE
Additional command line options : -6 -V -T "ARTIST=%a" -T "TITLE=%t" -T "ALBUM=%g" -T "DATE=%y" -T "TRACKNUMBER=%n" -T "GENRE=%m" -T "COMMENT=%e" %s -o %d


TOC of the extracted CD

Track | Start | Length | Start sector | End sector
––––––––––––––––––––––––––––-
1 | 0:00.00 | 9:32.02 | 0 | 42901
2 | 9:32.02 | 5:04.13 | 42902 | 65714
3 | 14:36.15 | 3:15.05 | 65715 | 80344
4 | 17:51.20 | 1:39.62 | 80345 | 87831
5 | 19:31.07 | 4:16.13 | 87832 | 107044
6 | 23:47.20 | 4:10.47 | 107045 | 125841
7 | 27:57.67 | 2:49.18 | 125842 | 138534
8 | 30:47.10 | 5:16.30 | 138535 | 162264
9 | 36:03.40 | 3:25.72 | 162265 | 177711
10 | 39:29.37 | 4:31.15 | 177712 | 198051
11 | 44:00.52 | 4:05.13 | 198052 | 216439
12 | 48:05.65 | 3:51.00 | 216440 | 233764


Track 1

Filename C:\music files\01 - Kyrie –- 1. Chor- Kyrie eleison.wav

Peak level 96.2 %
Track quality 100.0 %
Copy CRC 3A9B1DC1
Copy OK

Track 2

Filename C:\music files\02 - 2. Duetto (Soprano I & II)- Christe eleison.wav

Peak level 85.4 %
Track quality 100.0 %
Copy CRC EEBF2E74
Copy OK

Track 3

Filename C:\music files\03 - 3. Chor- Kyrie eleison.wav

Peak level 87.3 %
Track quality 99.8 %
Copy CRC A4373F25
Copy OK

Track 4

Filename C:\music files\04 - Gloria –- 4. Chor- Gloria in excelsis Deo.wav

Peak level 93.9 %
Track quality 100.0 %
Copy CRC F52764A1
Copy OK

Track 5

Filename C:\music files\05 - 5. Chor- Et in terra pax.wav

Peak level 97.0 %
Track quality 100.0 %
Copy CRC 5BE1C458
Copy OK

Track 6

Filename C:\music files\06 - 6. Aria(Soprano II)- Laudamus te.wav

Peak level 49.9 %
Track quality 100.0 %
Copy CRC F0B82828
Copy OK

Track 7

Filename C:\music files\07 - 7. Chor- Gratias agimus tibi.wav

Peak level 99.9 %
Track quality 99.8 %
Copy CRC 6DB45BDB
Copy OK

Track 8

Filename C:\music files\08 - 8. Duetto(Soprano & Tenor)- Domine Deus.wav

Peak level 55.1 %
Track quality 100.0 %
Copy CRC A99C5404
Copy OK

Track 9

Filename C:\music files\09 - 9. Chor- Qui tollis peccata mundi.wav

Peak level 39.6 %
Track quality 100.0 %
Copy CRC E5389A4D
Copy OK

Track 10

Filename C:\music files\10 - 10. Aria(Alto)- Qui sedes ad dextram Patris.wav

Peak level 56.6 %
Track quality 100.0 %
Copy CRC 40B2266B
Copy OK

Track 11

Filename C:\music files\11 - 11. Aria(Bass)- Quaniam tu solus Sanctus.wav

Peak level 73.9 %
Track quality 100.0 %
Copy CRC F0CC00DD
Copy OK

Track 12

Filename C:\music files\12 - 12. Chor- Cum Sancto Spiritu.wav

Peak level 99.3 %
Track quality 100.0 %
Copy CRC A209B35A
Copy OK

No errors occurred

End of status report


Exact Audio Copy V0.99 prebeta 4 from 23. January 2008

EAC extraction logfile from 12. September 2008, 20:01

Seiji Ozawa, Saito Kinen Orchestra, etc. / Mass in B minor, BWV 232 - CD 2

Used drive : TSSTcorpCD/DVDW TS-H652D Adapter: 1 ID: 0

Read mode : Secure
Utilize accurate stream : Yes
Defeat audio cache : No
Make use of C2 pointers : Yes

Combined read/write offset correction : 0
Overread into Lead-In and Lead-Out : No
Fill up missing offset samples with silence : Yes
Delete leading and trailing silent blocks : No
Null samples used in CRC calculations : No
Used interface : Native Win32 interface for Win NT & 2000
Gap handling : Not detected, thus appended to previous track

Used output format : User Defined Encoder
Selected bitrate : 768 kBit/s
Quality : High
Add ID3 tag : No
Command line compressor : C:\Program Files\Exact Audio Copy\FLAC\FLAC.EXE
Additional command line options : -6 -V -T "ARTIST=%a" -T "TITLE=%t" -T "ALBUM=%g" -T "DATE=%y" -T "TRACKNUMBER=%n" -T "GENRE=%m" -T "COMMENT=%e" %s -o %d


TOC of the extracted CD

Track | Start | Length | Start sector | End sector
––––––––––––––––––––––––––––-
1 | 0:00.00 | 1:58.35 | 0 | 8884
2 | 1:58.35 | 1:51.27 | 8885 | 17236
3 | 3:49.62 | 4:05.53 | 17237 | 35664
4 | 7:55.40 | 3:16.45 | 35665 | 50409
5 | 11:12.10 | 2:52.50 | 50410 | 63359
6 | 14:04.60 | 3:49.30 | 63360 | 80564
7 | 17:54.15 | 4:40.00 | 80565 | 101564
8 | 22:34.15 | 3:56.25 | 101565 | 119289
9 | 26:30.40 | 2:06.52 | 119290 | 128791
10 | 28:37.17 | 5:03.60 | 128792 | 151576
11 | 33:41.02 | 2:32.48 | 151577 | 163024
12 | 36:13.50 | 3:55.07 | 163025 | 180656
13 | 40:08.57 | 2:31.00 | 180657 | 191981
14 | 42:39.57 | 4:47.45 | 191982 | 213551
15 | 47:27.27 | 3:03.35 | 213552 | 227311


Track 1

Filename C:\music files\01 - Credo –- 13. Chor- Credo inunum Deum.wav

Peak level 65.3 %
Track quality 100.0 %
Copy CRC 4908F45A
Copy OK

Track 2

Filename C:\music files\02 - 14. Chor- Patrem omnipotentem.wav

Peak level 93.4 %
Track quality 100.0 %
Copy CRC F4E96FC0
Copy OK

Track 3

Filename C:\music files\03 - 15. Duetto(Soprano I & Alto)- Et in unum Dominum.wav

Peak level 59.4 %
Track quality 100.0 %
Copy CRC 3964695C
Copy OK

Track 4

Filename C:\music files\04 - 16. Chor- Et incarnatus est.wav

Peak level 35.9 %
Track quality 100.0 %
Copy CRC 0DC0E18A
Copy OK

Track 5

Filename C:\music files\05 - 17. Chor- Crusifixus.wav

Peak level 38.3 %
Track quality 100.0 %
Copy CRC 22599230
Copy OK

Track 6

Filename C:\music files\06 - 18. Chor- Etresurrexit.wav

Peak level 94.6 %
Track quality 100.0 %
Copy CRC 8B3FE1D7
Copy OK

Track 7

Filename C:\music files\07 - 19. Aria(Bass)- Et in Spiritum Sanctum.wav

Peak level 47.1 %
Track quality 100.0 %
Copy CRC A85D1425
Copy OK

Track 8

Filename C:\music files\08 - 20. Chor- Confiteor unum baptisma.wav

Peak level 63.9 %
Track quality 100.0 %
Copy CRC DECB8F5A
Copy OK

Track 9

Filename C:\music files\09 - 21. Chor- Et expecto resurrectionem.wav

Peak level 99.2 %
Track quality 100.0 %
Copy CRC F65318A3
Copy OK

Track 10

Filename C:\music files\10 - Sanctus –- 22. Chor- Sanctus.wav

Peak level 95.9 %
Track quality 100.0 %
Copy CRC B3D7E781
Copy OK

Track 11

Filename C:\music files\11 - Osanna –- 23. Chor- Osanna inexcelsis.wav

Peak level 79.1 %
Track quality 100.0 %
Copy CRC C551146A
Copy OK

Track 12

Filename C:\music files\12 - Benedictus –- 24. Aria(Tenor)- Benedictus qui venit.wav

Peak level 26.8 %
Track quality 100.0 %
Copy CRC F2F8694D
Copy OK

Track 13

Filename C:\music files\13 - 25. Chor- Osanna inexcelsis.wav

Peak level 87.8 %
Track quality 100.0 %
Copy CRC 734C7A9F
Copy OK

Track 14

Filename C:\music files\14 - Agnus Dei –- 26. Aria(Alto)- Agnus Dei, qui tollis.wav

Peak level 44.4 %
Track quality 100.0 %
Copy CRC 160C5BB7
Copy OK

Track 15

Filename C:\music files\15 - Dona nobis pacem –- 27. Chor- Dona nobis pacem.wav

Peak level 99.6 %
Track quality 100.0 %
Copy CRC AF243A16
Copy OK

No errors occurred

End of status report

Download Links list:
http://rapidshare.com/files/392972196/BWV232_Ozawa_Links.txt.html
no password
Thanks to poimandres