Subcategories

Wilhelm Backhaus, Vienna Philharmonic, Karl Bohm - Johannes Brahms: Piano Concertos Nos. 1 & 2 (1989) 2CDs

Posted By: Designol
Wilhelm Backhaus, Vienna Philharmonic, Karl Bohm - Johannes Brahms: Piano Concertos Nos. 1 & 2 (1989) 2CDs

Johannes Brahms: Klavierkonzerte 1 & 2 (1989) 2CDs
Wilhelm Backhaus (piano); Wiener Philharmoniker, conducted by Karl Böhm

EAC | FLAC | Image (Cue&Log) ~ 367 Mb | Mp3 (CBR320) ~ 212 Mb | Artwork included
Genre: Classical | Label: Decca | # 425 763-2 | Time: 01:31:50

As an eleven-year-old in 1895, Wilhelm Backhaus met and performed for D'Albert, Grieg, Nikisch and Brahms, among others. Here was a pianist who shunned hectoring gestures of the late Romantic era for economy and purposefulness. "His facial expression always remained steady, showing an unceasing concentration on the sounds his hands were coaxing from the instrument with such concentrated energy. Everything lay in the act of playing, just as the preoccupation of a great painter or sculptor would be not with technique as such, but with craftsmanship - that is, skill not as an end in itself, but as a vehicle for the idea - giving pleasure to those who were able to watch and hear how a true master would execute even difficult passages effortlessly," writes Walter Frei. This 2-CD set brings together Backhaus's recordings with Karl Bohm and the Vienna Philharmonic of the two Brahms Piano Concertos.

Wilhelm Backhaus, Vienna Philharmonic, Karl Bohm - Johannes Brahms: Piano Concertos Nos. 1 & 2 (1989) 2CDs



Wilhelm Backhaus, Vienna Philharmonic, Karl Bohm - Johannes Brahms: Piano Concertos Nos. 1 & 2 (1989) 2CDs



Wilhelm Backhaus, Vienna Philharmonic, Karl Bohm - Johannes Brahms: Piano Concertos Nos. 1 & 2 (1989) 2CDs



Tracklist:

CD1:

Piano Concerto No. 1 in D minor, Op. 15

01. I. Maestoso (19:38)
02. II. Adagio (12:41)
03. III. Allegro non troppo (11:19)


CD2:

Piano Concerto No. 2 in B flat major, Op. 83

01. I Allegro non troppo (17:17)
02. II Allegro appassionato (8:50)
03. III Andante (12:21) Emmanuel Brabec, Cello
04. IV Allegretto grazioso (9:45)


Exact Audio Copy V1.0 beta 3 from 29. August 2011

EAC extraction logfile from 18. May 2012, 9:52

Wilhelm Backhaus / Brahms - Piano Concertos - Backhaus, Böhm (cd1)

Used drive : HL-DT-STDVDRAM GSA-H10A Adapter: 0 ID: 0

Read mode : Secure
Utilize accurate stream : Yes
Defeat audio cache : Yes
Make use of C2 pointers : No

Read offset correction : 667
Overread into Lead-In and Lead-Out : No
Fill up missing offset samples with silence : Yes
Delete leading and trailing silent blocks : No
Null samples used in CRC calculations : Yes
Used interface : Native Win32 interface for Win NT & 2000

Used output format : User Defined Encoder
Selected bitrate : 1024 kBit/s
Quality : High
Add ID3 tag : No
Command line compressor : C:\Program Files\Exact Audio Copy\Flac\flac.exe
Additional command line options : -8 -V -T "TITLE=%title%" -T "ARTIST=%artist%" -T "ALBUMARTIST=%albumartist%" -T "ALBUM=%albumtitle%" -T "DATE=%year%" -T "TRACKNUMBER=%tracknr%" -T "TRACKTOTAL=%numtracks%" -T "GENRE=%genre%" -T "COMMENT=%comment%" -T "PERFORMER=%albuminterpret%" -T "COMPOSER=%composer%" %source% -o %dest%


TOC of the extracted CD

Track | Start | Length | Start sector | End sector
––––––––––––––––––––––––––––-
1 | 0:00.33 | 19:37.50 | 33 | 88357
2 | 19:38.08 | 12:41.25 | 88358 | 145457
3 | 32:19.33 | 11:18.62 | 145458 | 196369


Range status and errors

Selected range

Filename F:\Ripped general\[0730]Brahms - Piano Concertos - Backhaus, Böhm\cd1\Brahms - Piano Concertos - Backhaus, Böhm (cd1).wav

Peak level 93.3 %
Extraction speed 7.0 X
Range quality 100.0 %
Test CRC DDD34662
Copy CRC DDD34662
Copy OK

No errors occurred


AccurateRip summary

Track 1 accurately ripped (confidence 3) [68934455] (AR v1)
Track 2 accurately ripped (confidence 3) [7EA648DC] (AR v1)
Track 3 accurately ripped (confidence 3) [7BACABA6] (AR v1)

All tracks accurately ripped

End of status report

[CUETools log; Date: 11.07.2017 1:43:43; Version: 2.1.4]
Pregap length 00:00:33.
[CTDB TOCID: 2aP1zUN7Z_Te4D6DxGQ5ALEK0b4-] found.
Track | CTDB Status
1 | (6/6) Accurately ripped
2 | (6/6) Accurately ripped
3 | (6/6) Accurately ripped
[AccurateRip ID: 0006908b-0015574b-1b0a3a03] found.
Track [ CRC | V2 ] Status
01 [68934455|6e9d64d7] (3+4/7) Accurately ripped
02 [7ea648dc|af60b6ec] (3+4/7) Accurately ripped
03 [7bacaba6|d0f02389] (3+4/7) Accurately ripped

Track Peak [ CRC32 ] [W/O NULL] [ LOG ]
– 93,3 [DDD34662] [3E172D01] CRC32
01 93,1 [47D2B824] [717CED90]
02 51,4 [C9D1E6C4] [848B43FD]
03 93,3 [AD2D37AA] [640E45D1]

foobar2000 1.2 / Dynamic Range Meter 1.1.1
log date: 2017-07-11 01:46:03

––––––––––––––––––––––––––––––––––––––––
Analyzed: Wilhelm Backhaus; Wiener Philharmoniker, Karl Bohm / Brahms - Piano Concertos Nos. 1 & 2(CD1)
––––––––––––––––––––––––––––––––––––––––

DR Peak RMS Duration Track
––––––––––––––––––––––––––––––––––––––––
DR14 -0.62 dB -19.19 dB 19:38 01-Piano Concerto No.1 - I. Maestoso
DR14 -5.76 dB -25.61 dB 12:41 02-Piano Concerto No.1 - II. Adagio
DR14 -0.59 dB -18.81 dB 11:19 03-Piano Concerto No.1 - III. Allegro non troppo
––––––––––––––––––––––––––––––––––––––––

Number of tracks: 3
Official DR value: DR14

Samplerate: 44100 Hz
Channels: 2
Bits per sample: 16
Bitrate: 489 kbps
Codec: FLAC
================================================================================


Exact Audio Copy V1.0 beta 3 from 29. August 2011

EAC extraction logfile from 18. May 2012, 10:11

Wilhelm Backhaus / Brahms - Piano Concertos - Backhaus, Böhm (cd2)

Used drive : HL-DT-STDVDRAM GSA-H10A Adapter: 0 ID: 0

Read mode : Secure
Utilize accurate stream : Yes
Defeat audio cache : Yes
Make use of C2 pointers : No

Read offset correction : 667
Overread into Lead-In and Lead-Out : No
Fill up missing offset samples with silence : Yes
Delete leading and trailing silent blocks : No
Null samples used in CRC calculations : Yes
Used interface : Native Win32 interface for Win NT & 2000

Used output format : User Defined Encoder
Selected bitrate : 1024 kBit/s
Quality : High
Add ID3 tag : No
Command line compressor : C:\Program Files\Exact Audio Copy\Flac\flac.exe
Additional command line options : -8 -V -T "TITLE=%title%" -T "ARTIST=%artist%" -T "ALBUMARTIST=%albumartist%" -T "ALBUM=%albumtitle%" -T "DATE=%year%" -T "TRACKNUMBER=%tracknr%" -T "TRACKTOTAL=%numtracks%" -T "GENRE=%genre%" -T "COMMENT=%comment%" -T "PERFORMER=%albuminterpret%" -T "COMPOSER=%composer%" %source% -o %dest%


TOC of the extracted CD

Track | Start | Length | Start sector | End sector
––––––––––––––––––––––––––––-
1 | 0:00.32 | 17:16.45 | 32 | 77776
2 | 17:17.02 | 8:49.48 | 77777 | 117499
3 | 26:06.50 | 12:20.50 | 117500 | 173049
4 | 38:27.25 | 9:45.12 | 173050 | 216936


Range status and errors

Selected range

Filename F:\Ripped general\[0730]Brahms - Piano Concertos - Backhaus, Böhm\cd2\Brahms - Piano Concertos - Backhaus, Böhm (cd2).wav

Peak level 94.1 %
Extraction speed 5.8 X
Range quality 100.0 %
Test CRC C94D6918
Copy CRC C94D6918
Copy OK

No errors occurred


AccurateRip summary

Track 1 accurately ripped (confidence 2) [8BAED8CD] (AR v2)
Track 2 accurately ripped (confidence 2) [A3527DB2] (AR v2)
Track 3 accurately ripped (confidence 2) [3F7525C4] (AR v2)
Track 4 accurately ripped (confidence 2) [1A67DB5B] (AR v2)

All tracks accurately ripped

End of status report

[CUETools log; Date: 11.07.2017 1:43:56; Version: 2.1.4]
Pregap length 00:00:32.
[CTDB TOCID: k52XS6l4z0WlqWUWj487DCLw6d4-] found.
Track | CTDB Status
1 | (18/22) Accurately ripped
2 | (18/22) Accurately ripped
3 | (18/22) Accurately ripped
4 | (18/22) Accurately ripped
[AccurateRip ID: 0008ee50-0022ddab-310b4c04] found.
Track [ CRC | V2 ] Status
01 [2bc6c7d2|8baed8cd] (07+16/26) Accurately ripped
02 [73ab2a55|a3527db2] (07+18/28) Accurately ripped
03 [36593ff9|3f7525c4] (07+17/27) Accurately ripped
04 [526c9ee6|1a67db5b] (06+18/27) Accurately ripped
Offsetted by 1408:
01 [ad2825d2] (00/26) No match
02 [6c6150fb] (00/28) No match
03 [854c6a11] (00/27) No match
04 [963d27b1] (00/27) No match (V2 was not tested)
Offsetted by 2560:
01 [e877cfd2] (00/26) No match
02 [aaf62634] (00/28) No match
03 [54be845f] (00/27) No match (V2 was not tested)
04 [376c4708] (00/27) No match

Track Peak [ CRC32 ] [W/O NULL] [ LOG ]
– 94,1 [C94D6918] [E8990C9B] CRC32
01 90,4 [04B663C8] [59DB0AA5]
02 86,9 [6D8A8B88] [7185B02C]
03 80,6 [BDF83AFA] [672425CA]
04 94,1 [85EA5B93] [0FE824DC]

foobar2000 1.2 / Dynamic Range Meter 1.1.1
log date: 2017-07-11 01:46:17

––––––––––––––––––––––––––––––––––––––––
Analyzed: Wilhelm Backhaus; Wiener Philharmoniker, Karl Bohm / Brahms - Piano Concertos Nos. 1 & 2 (CD2)
––––––––––––––––––––––––––––––––––––––––

DR Peak RMS Duration Track
––––––––––––––––––––––––––––––––––––––––
DR13 -0.87 dB -18.98 dB 17:17 01-Piano Concerto No.2 - I Allegro non troppo
DR12 -1.21 dB -18.11 dB 8:50 02-Piano Concerto No.2 - II Allegro appassionato
DR15 -1.86 dB -23.96 dB 12:21 03-Piano Concerto No.2 - III Andante (Emmanuel Brabec, Cello)
DR13 -0.53 dB -18.72 dB 9:45 04-Piano Concerto No.2 - IV Allegretto grazioso
––––––––––––––––––––––––––––––––––––––––

Number of tracks: 4
Official DR value: DR13

Samplerate: 44100 Hz
Channels: 2
Bits per sample: 16
Bitrate: 579 kbps
Codec: FLAC
================================================================================

Wilhelm Backhaus, Vienna Philharmonic, Karl Bohm - Johannes Brahms: Piano Concertos Nos. 1 & 2 (1989) 2CDs

All thanks to - odeonmusic

More Johannes Brahms in My Blog