Subcategories

Backyard Babies - Original Album Classic (2010)

Posted By: v3122
Backyard Babies - Original Album Classic (2010)

Backyard Babies - Original Album Classic (2010)
EAC | Flac(Image) + Cue + Log & MP3 CBR 320Kbps
3CD | RCA Records, 88697 555102-6 | ~ 1028 or 326 Mb | Scans(jpg) -> 13 Mb
Hard Rock / Glam Punk

A repackaging of 2001's Making Enemies Is Good, 2003's Stockholm Syndrome, and 2005's Live Live in Paris, 3 Original Albums brings together a trio of gems from Swedish hard rock outfit Backyard Babies. Drawing from the band's middle period, the box set gives new fans a perfect introduction into the band's brand of slinky, glam-influenced "sleaze rock" and offers up a great starting point for anyone looking to dig into the band's solid back catalog.

by Gregory Heaney, AMG
Backyard Babies - Original Album Classic (2010)


Backyard Babies - Original Album Classic (2010):

Backyard Babies - Original Album Classic (2010)

Tracklist CD1 - Making Enemies is Good - 2001:

01. I Love to Roll (02:04)
02. Payback (03:03)
03. Brand New Hate (03:01)
04. Colours (04:49)
05. Star War (03:07)
06. The Clash (03:07)
07. My Demonic Side (03:37)
08. The Kids are Alright (02:58)
09. Ex-Files (03:36)
10. Heaven (02:51)
11. Too Tough to make Some Friends (02:17)
12. Painkiller (05:34)
13. Bigger W,A Trigger (02:06)

Converted to Image (CUETools 2.1.4)

Exact Audio Copy V1.0 beta 3 from 29. August 2011

EAC extraction logfile from 15. March 2014, 0:00

Backyard Babies / Making Enemies is Good CD1

Used drive : PLEXTOR CD-R PREMIUM2 Adapter: 4 ID: 0

Read mode : Secure
Utilize accurate stream : Yes
Defeat audio cache : Yes
Make use of C2 pointers : No

Read offset correction : 30
Overread into Lead-In and Lead-Out : Yes
Fill up missing offset samples with silence : Yes
Delete leading and trailing silent blocks : No
Null samples used in CRC calculations : Yes
Used interface : Native Win32 interface for Win NT & 2000
Gap handling : Appended to previous track

Used output format : User Defined Encoder
Selected bitrate : 1024 kBit/s
Quality : High
Add ID3 tag : No
Command line compressor : C:\Program Files (x86)\Exact Audio Copy\Flac\flac.exe
Additional command line options : -8 -V -T "ARTIST=%artist%" -T "TITLE=%title%" -T "ALBUM=%albumtitle%" -T "DATE=%year%" -T "TRACKNUMBER=%tracknr%" -T "TOTALTRACKS=%numtracks%" -T "GENRE=%genre%" -T "ALBUMARTIST=%albumartist%" -T "ALBUM ARTIST=%albumartist%" -T "COMMENT=EAC Secure Mode, Test & Copy, AccurateRip, FLAC -8" %source%


TOC of the extracted CD

Track | Start | Length | Start sector | End sector
––––––––––––––––––––––––––––-
1 | 0:00.00 | 2:04.41 | 0 | 9340
2 | 2:04.41 | 3:03.65 | 9341 | 23130
3 | 5:08.31 | 3:01.31 | 23131 | 36736
4 | 8:09.62 | 4:49.63 | 36737 | 58474
5 | 12:59.50 | 3:07.14 | 58475 | 72513
6 | 16:06.64 | 3:07.19 | 72514 | 86557
7 | 19:14.08 | 3:37.15 | 86558 | 102847
8 | 22:51.23 | 2:58.21 | 102848 | 116218
9 | 25:49.44 | 3:36.43 | 116219 | 132461
10 | 29:26.12 | 2:51.21 | 132462 | 145307
11 | 32:17.33 | 2:17.34 | 145308 | 155616
12 | 34:34.67 | 5:34.11 | 155617 | 180677
13 | 40:09.03 | 2:06.67 | 180678 | 190194


Track 1

Filename G:\FLAC\01 - I Love to Roll.wav

Pre-gap length 0:00:02.00

Peak level 100.0 %
Extraction speed 1.8 X
Track quality 100.0 %
Test CRC 49C57640
Copy CRC 49C57640
Accurately ripped (confidence 3) [6927AEDB] (AR v2)
Copy OK

Track 2

Filename G:\FLAC\02 - Payback.wav

Pre-gap length 0:00:00.16

Peak level 100.0 %
Extraction speed 1.9 X
Track quality 100.0 %
Test CRC 88CA7D3A
Copy CRC 88CA7D3A
Accurately ripped (confidence 3) [F58DF5F7] (AR v2)
Copy OK

Track 3

Filename G:\FLAC\03 - Brand New Hate.wav

Pre-gap length 0:00:00.63

Peak level 100.0 %
Extraction speed 1.9 X
Track quality 100.0 %
Test CRC 69F405FC
Copy CRC 69F405FC
Accurately ripped (confidence 3) [B1105F61] (AR v2)
Copy OK

Track 4

Filename G:\FLAC\04 - Colours.wav

Pre-gap length 0:00:02.09

Peak level 99.6 %
Extraction speed 1.8 X
Track quality 99.9 %
Test CRC 795491BD
Copy CRC 795491BD
Accurately ripped (confidence 3) [1B69A0A7] (AR v2)
Copy OK

Track 5

Filename G:\FLAC\05 - Star War.wav

Pre-gap length 0:00:01.18

Peak level 100.0 %
Extraction speed 1.9 X
Track quality 100.0 %
Test CRC CB163253
Copy CRC CB163253
Accurately ripped (confidence 3) [FEDFAB43] (AR v2)
Copy OK

Track 6

Filename G:\FLAC\06 - The Clash.wav

Pre-gap length 0:00:02.00

Peak level 98.3 %
Extraction speed 1.8 X
Track quality 99.9 %
Test CRC C86B8D82
Copy CRC C86B8D82
Accurately ripped (confidence 3) [9C5D26D5] (AR v2)
Copy OK

Track 7

Filename G:\FLAC\07 - My Demonic Side.wav

Pre-gap length 0:00:00.28

Peak level 100.0 %
Extraction speed 1.9 X
Track quality 100.0 %
Test CRC 65B9F5B7
Copy CRC 65B9F5B7
Accurately ripped (confidence 3) [E9CDFCB1] (AR v2)
Copy OK

Track 8

Filename G:\FLAC\08 - The Kids are Alright.wav

Pre-gap length 0:00:00.63

Peak level 98.4 %
Extraction speed 1.8 X
Track quality 99.9 %
Test CRC 6C3DDD6A
Copy CRC 6C3DDD6A
Accurately ripped (confidence 3) [E6E45A26] (AR v2)
Copy OK

Track 9

Filename G:\FLAC\09 - Ex-Files.wav

Pre-gap length 0:00:00.30

Peak level 100.0 %
Extraction speed 1.9 X
Track quality 100.0 %
Test CRC E13F26AD
Copy CRC E13F26AD
Accurately ripped (confidence 3) [1F28067C] (AR v2)
Copy OK

Track 10

Filename G:\FLAC\10 - Heaven.wav

Pre-gap length 0:00:00.52

Peak level 100.0 %
Extraction speed 1.8 X
Track quality 99.9 %
Test CRC 92A9F8AD
Copy CRC 92A9F8AD
Accurately ripped (confidence 3) [BD4D2CF3] (AR v2)
Copy OK

Track 11

Filename G:\FLAC\11 - Too Tough to make Some Friends.wav

Peak level 100.0 %
Extraction speed 1.8 X
Track quality 99.9 %
Test CRC E676F41B
Copy CRC E676F41B
Accurately ripped (confidence 3) [5CDB367B] (AR v2)
Copy OK

Track 12

Filename G:\FLAC\12 - Painkiller.wav

Peak level 100.0 %
Extraction speed 1.9 X
Track quality 100.0 %
Test CRC BE12A0F1
Copy CRC BE12A0F1
Accurately ripped (confidence 3) [E49E5219] (AR v2)
Copy OK

Track 13

Filename G:\FLAC\13 - Bigger W, A Trigger.wav

Peak level 100.0 %
Extraction speed 1.9 X
Track quality 100.0 %
Test CRC 721E9E9A
Copy CRC 721E9E9A
Accurately ripped (confidence 3) [645CDB7E] (AR v2)
Copy OK


All tracks accurately ripped

No errors occurred

End of status report

==== Log checksum 639E827A0706CF2C5C0D3385A44D37A7A8D03F5E7128A07F050C7DEBC748BA4C ====

Backyard Babies - Original Album Classic (2010)

Tracklist CD2 - Stockholm Syndrome - 2003:

01. Everybody Ready! (03:06)
02. Earn The Crown (03:53)
03. A Song For The Outcast (03:49)
04. Minus Celsius (03:35)
05. Pigs For Swine (03:06)
06. One Sound (03:33)
07. Say When (02:33)
08. Year By Year (03:54)
09. Friends (02:49)
10. Be Myself And I (03:40)
11. You Tell Me You Love Me You Lie (03:35)

Converted to Image (CUETools 2.1.4)

Exact Audio Copy V1.0 beta 3 from 29. August 2011

EAC extraction logfile from 15. March 2014, 0:44

Backyard Babies / Stockholm Syndrome CD2

Used drive : PLEXTOR CD-R PREMIUM2 Adapter: 4 ID: 0

Read mode : Secure
Utilize accurate stream : Yes
Defeat audio cache : Yes
Make use of C2 pointers : No

Read offset correction : 30
Overread into Lead-In and Lead-Out : Yes
Fill up missing offset samples with silence : Yes
Delete leading and trailing silent blocks : No
Null samples used in CRC calculations : Yes
Used interface : Native Win32 interface for Win NT & 2000
Gap handling : Appended to previous track

Used output format : User Defined Encoder
Selected bitrate : 1024 kBit/s
Quality : High
Add ID3 tag : No
Command line compressor : C:\Program Files (x86)\Exact Audio Copy\Flac\flac.exe
Additional command line options : -8 -V -T "ARTIST=%artist%" -T "TITLE=%title%" -T "ALBUM=%albumtitle%" -T "DATE=%year%" -T "TRACKNUMBER=%tracknr%" -T "TOTALTRACKS=%numtracks%" -T "GENRE=%genre%" -T "ALBUMARTIST=%albumartist%" -T "ALBUM ARTIST=%albumartist%" -T "COMMENT=EAC Secure Mode, Test & Copy, AccurateRip, FLAC -8" %source%


TOC of the extracted CD

Track | Start | Length | Start sector | End sector
––––––––––––––––––––––––––––-
1 | 0:00.00 | 3:06.40 | 0 | 13989
2 | 3:06.40 | 3:53.65 | 13990 | 31529
3 | 7:00.30 | 3:49.40 | 31530 | 48744
4 | 10:49.70 | 3:35.50 | 48745 | 64919
5 | 14:25.45 | 3:06.25 | 64920 | 78894
6 | 17:31.70 | 3:33.57 | 78895 | 94926
7 | 21:05.52 | 2:33.00 | 94927 | 106401
8 | 23:38.52 | 3:54.23 | 106402 | 123974
9 | 27:33.00 | 2:49.27 | 123975 | 136676
10 | 30:22.27 | 3:40.73 | 136677 | 153249
11 | 34:03.25 | 3:35.55 | 153250 | 169429


Track 1

Filename G:\FLAC\01 - Everybody Ready.wav

Pre-gap length 0:00:02.00

Peak level 98.8 %
Extraction speed 1.8 X
Track quality 99.9 %
Test CRC D16ECAF8
Copy CRC D16ECAF8
Accurately ripped (confidence 5) [EB903FD2] (AR v2)
Copy OK

Track 2

Filename G:\FLAC\02 - Earn The Crown.wav

Peak level 100.0 %
Extraction speed 1.9 X
Track quality 100.0 %
Test CRC 39D0F520
Copy CRC 39D0F520
Accurately ripped (confidence 5) [6EB6B9D8] (AR v2)
Copy OK

Track 3

Filename G:\FLAC\03 - A Song For The Outcast.wav

Peak level 100.0 %
Extraction speed 1.9 X
Track quality 100.0 %
Test CRC D2929290
Copy CRC D2929290
Accurately ripped (confidence 5) [C350CFC8] (AR v2)
Copy OK

Track 4

Filename G:\FLAC\04 - Minus Celsius.wav

Peak level 100.0 %
Extraction speed 1.9 X
Track quality 100.0 %
Test CRC D7633DC7
Copy CRC D7633DC7
Accurately ripped (confidence 5) [7AE176EC] (AR v2)
Copy OK

Track 5

Filename G:\FLAC\05 - Pigs For Swine.wav

Pre-gap length 0:00:01.15

Peak level 98.8 %
Extraction speed 1.9 X
Track quality 100.0 %
Test CRC B8B3B825
Copy CRC B8B3B825
Accurately ripped (confidence 5) [704DF4A3] (AR v2)
Copy OK

Track 6

Filename G:\FLAC\06 - One Sound.wav

Pre-gap length 0:00:01.43

Peak level 100.0 %
Extraction speed 1.8 X
Track quality 99.9 %
Test CRC C882AC9A
Copy CRC C882AC9A
Accurately ripped (confidence 5) [83DFAC88] (AR v2)
Copy OK

Track 7

Filename G:\FLAC\07 - Say When.wav

Peak level 100.0 %
Extraction speed 1.8 X
Track quality 100.0 %
Test CRC 16A495F7
Copy CRC 16A495F7
Accurately ripped (confidence 5) [C86A89EE] (AR v2)
Copy OK

Track 8

Filename G:\FLAC\08 - Year By Year.wav

Peak level 100.0 %
Extraction speed 1.9 X
Track quality 100.0 %
Test CRC 3A33139A
Copy CRC 3A33139A
Accurately ripped (confidence 5) [DBF4903D] (AR v2)
Copy OK

Track 9

Filename G:\FLAC\09 - Friends.wav

Peak level 98.8 %
Extraction speed 1.9 X
Track quality 100.0 %
Test CRC 5231FB73
Copy CRC 5231FB73
Accurately ripped (confidence 5) [2E751157] (AR v2)
Copy OK

Track 10

Filename G:\FLAC\10 - Be Myself And I.wav

Peak level 98.8 %
Extraction speed 1.9 X
Track quality 100.0 %
Test CRC 85C86CEB
Copy CRC 85C86CEB
Accurately ripped (confidence 5) [4DA83AFB] (AR v2)
Copy OK

Track 11

Filename G:\FLAC\11 - You Tell Me You Love Me You Lie.wav

Peak level 98.8 %
Extraction speed 1.9 X
Track quality 100.0 %
Test CRC DFB50BFE
Copy CRC DFB50BFE
Accurately ripped (confidence 5) [3F522D4C] (AR v2)
Copy OK


All tracks accurately ripped

No errors occurred

End of status report

==== Log checksum F3F1F1A25454E12DDFFCF13FD2336B65A5FD5364D990AB98479DBA5447320B68 ====

Backyard Babies - Original Album Classic (2010)

Tracklist CD3 - Live Live In Paris - 2005:

01. L'Intro (00:30)
02. Look At You (02:51)
03. Earn The Crown (03:53)
04. Payback. (03:44)
05. Heaven 2.9 (03:20)
06. Powderhead (03:44)
07. A Song For The Outcast (03:51)
08. The Clash (03:25)
09. One Sound (03:33)
10. Made Me Madman (02:35)
11. U.F.O. Romeo (03:31)
12. Year By Year (04:18)
13. Highlights (04:37)
14. Star War (03:23)
15. Brand New Hate (04:05)
16. Minus Celsius (04:50)

Converted to Image (CUETools 2.1.4)

Exact Audio Copy V1.0 beta 3 from 29. August 2011

EAC extraction logfile from 15. March 2014, 11:27

Backyard Babies / Live Live In Paris CD3

Used drive : PLEXTOR CD-R PREMIUM2 Adapter: 4 ID: 0

Read mode : Secure
Utilize accurate stream : Yes
Defeat audio cache : Yes
Make use of C2 pointers : No

Read offset correction : 30
Overread into Lead-In and Lead-Out : Yes
Fill up missing offset samples with silence : Yes
Delete leading and trailing silent blocks : No
Null samples used in CRC calculations : Yes
Used interface : Native Win32 interface for Win NT & 2000
Gap handling : Appended to previous track

Used output format : User Defined Encoder
Selected bitrate : 1024 kBit/s
Quality : High
Add ID3 tag : No
Command line compressor : C:\Program Files (x86)\Exact Audio Copy\Flac\flac.exe
Additional command line options : -8 -V -T "ARTIST=%artist%" -T "TITLE=%title%" -T "ALBUM=%albumtitle%" -T "DATE=%year%" -T "TRACKNUMBER=%tracknr%" -T "TOTALTRACKS=%numtracks%" -T "GENRE=%genre%" -T "ALBUMARTIST=%albumartist%" -T "ALBUM ARTIST=%albumartist%" -T "COMMENT=EAC Secure Mode, Test & Copy, AccurateRip, FLAC -8" %source%


TOC of the extracted CD

Track | Start | Length | Start sector | End sector
––––––––––––––––––––––––––––-
1 | 0:00.00 | 0:30.68 | 0 | 2317
2 | 0:30.68 | 2:51.08 | 2318 | 15150
3 | 3:22.01 | 3:53.46 | 15151 | 32671
4 | 7:15.47 | 3:44.20 | 32672 | 49491
5 | 10:59.67 | 3:20.72 | 49492 | 64563
6 | 14:20.64 | 3:44.23 | 64564 | 81386
7 | 18:05.12 | 3:51.29 | 81387 | 98740
8 | 21:56.41 | 3:25.32 | 98741 | 114147
9 | 25:21.73 | 3:33.44 | 114148 | 130166
10 | 28:55.42 | 2:35.17 | 130167 | 141808
11 | 31:30.59 | 3:31.29 | 141809 | 157662
12 | 35:02.13 | 4:18.06 | 157663 | 177018
13 | 39:20.19 | 4:37.66 | 177019 | 197859
14 | 43:58.10 | 3:23.50 | 197860 | 213134
15 | 47:21.60 | 4:05.56 | 213135 | 231565
16 | 51:27.41 | 4:50.68 | 231566 | 253383


Track 1

Filename G:\FLAC\01 - L'Intro.wav

Pre-gap length 0:00:02.00

Peak level 80.7 %
Extraction speed 1.5 X
Track quality 100.0 %
Test CRC 2A7C3F58
Copy CRC 2A7C3F58
Accurately ripped (confidence 2) [26509705] (AR v2)
Copy OK

Track 2

Filename G:\FLAC\02 - Look At You.wav

Peak level 100.0 %
Extraction speed 1.8 X
Track quality 100.0 %
Test CRC 92BAE863
Copy CRC 92BAE863
Accurately ripped (confidence 2) [8C8DA780] (AR v2)
Copy OK

Track 3

Filename G:\FLAC\03 - Earn The Crown.wav

Peak level 100.0 %
Extraction speed 1.9 X
Track quality 100.0 %
Test CRC 4329A740
Copy CRC 4329A740
Accurately ripped (confidence 2) [FE14677B] (AR v2)
Copy OK

Track 4

Filename G:\FLAC\04 - Payback.wav

Pre-gap length 0:00:12.61

Peak level 100.0 %
Extraction speed 1.9 X
Track quality 100.0 %
Test CRC E02942A7
Copy CRC E02942A7
Accurately ripped (confidence 2) [A4B76C9D] (AR v2)
Copy OK

Track 5

Filename G:\FLAC\05 - Heaven 2.9.wav

Pre-gap length 0:00:31.16

Peak level 100.0 %
Extraction speed 1.9 X
Track quality 100.0 %
Test CRC E0CA915C
Copy CRC E0CA915C
Accurately ripped (confidence 2) [7C4D62E6] (AR v2)
Copy OK

Track 6

Filename G:\FLAC\06 - Powderhead.wav

Peak level 100.0 %
Extraction speed 1.9 X
Track quality 100.0 %
Test CRC 3B418336
Copy CRC 3B418336
Accurately ripped (confidence 2) [4472A6EE] (AR v2)
Copy OK

Track 7

Filename G:\FLAC\07 - A Song For The Outcast.wav

Pre-gap length 0:00:21.62

Peak level 100.0 %
Extraction speed 1.8 X
Track quality 99.9 %
Test CRC 074BA411
Copy CRC 074BA411
Accurately ripped (confidence 2) [A49D5FFA] (AR v2)
Copy OK

Track 8

Filename G:\FLAC\08 - The Clash.wav

Peak level 100.0 %
Extraction speed 1.9 X
Track quality 100.0 %
Test CRC 499BA0D4
Copy CRC 499BA0D4
Accurately ripped (confidence 2) [F7EEED67] (AR v2)
Copy OK

Track 9

Filename G:\FLAC\09 - One Sound.wav

Pre-gap length 0:00:24.25

Peak level 100.0 %
Extraction speed 1.9 X
Track quality 100.0 %
Test CRC D09094F4
Copy CRC D09094F4
Accurately ripped (confidence 2) [C53378D5] (AR v2)
Copy OK

Track 10

Filename G:\FLAC\10 - Made Me Madman.wav

Peak level 100.0 %
Extraction speed 1.9 X
Track quality 100.0 %
Test CRC 2627A170
Copy CRC 2627A170
Accurately ripped (confidence 2) [890992F6] (AR v2)
Copy OK

Track 11

Filename G:\FLAC\11 - U.F.O. Romeo.wav

Peak level 100.0 %
Extraction speed 1.9 X
Track quality 100.0 %
Test CRC BDA5326B
Copy CRC BDA5326B
Accurately ripped (confidence 2) [ECBBE0A5] (AR v2)
Copy OK

Track 12

Filename G:\FLAC\12 - Year By Year.wav

Peak level 100.0 %
Extraction speed 1.9 X
Track quality 100.0 %
Test CRC 6BAA0671
Copy CRC 6BAA0671
Accurately ripped (confidence 2) [E3BD4A0C] (AR v2)
Copy OK

Track 13

Filename G:\FLAC\13 - Highlights.wav

Peak level 100.0 %
Extraction speed 1.8 X
Track quality 99.9 %
Test CRC 3BF0AC2D
Copy CRC 3BF0AC2D
Accurately ripped (confidence 2) [5310398A] (AR v2)
Copy OK

Track 14

Filename G:\FLAC\14 - Star War.wav

Peak level 100.0 %
Extraction speed 1.9 X
Track quality 100.0 %
Test CRC B1A48CF4
Copy CRC B1A48CF4
Accurately ripped (confidence 2) [28F8AE64] (AR v2)
Copy OK

Track 15

Filename G:\FLAC\15 - Brand New Hate.wav

Peak level 100.0 %
Extraction speed 1.9 X
Track quality 100.0 %
Test CRC 6336BF13
Copy CRC 6336BF13
Accurately ripped (confidence 2) [7FBD90F0] (AR v2)
Copy OK

Track 16

Filename G:\FLAC\16 - Minus Celsius.wav

Peak level 100.0 %
Extraction speed 1.9 X
Track quality 100.0 %
Test CRC 35DDDFBE
Copy CRC 35DDDFBE
Accurately ripped (confidence 2) [186089A8] (AR v2)
Copy OK


All tracks accurately ripped

No errors occurred

End of status report

==== Log checksum 3D842544793953116930AF9753026AB5F76BB911A042CBB09590D7D3270885D9 ====

Backyard Babies - Original Album Classic (2010)

All thanks go to the original releaser

Download Backyard Babies - Original Album Classic (2010):