Subcategories

Bad Company - Holy Water (1990) [Japan 1st Press]

Posted By: Andi_Deris
Bad Company - Holy Water (1990) [Japan 1st Press]

Bad Company - Holy Water (1990) [Japan 1st Press]
EAC Rip | FLAC: Image+Cue+Log | 362 Mb | MP3 CBR 320 kbps | 128 Mb | Scans | Time: 53:41
Hard Rock, Arena Rock | ATCO Rec./MMG Inc. | AMCY-101

"Holy Water" is the ninth studio album by hard rock band Bad Company, and their third with Brian Howe as lead vocalist, released in June 1990. The singles on the album all received significant radio airplay. These included "Holy Water", "Boys Cry Tough", "Walk Through Fire", and "If You Needed Somebody", all of which charted fairly well. To date, this is the last album by Bad Company to go platinum.

Bad Company - Holy Water (1990) [Japan 1st Press]




Bad Company - Holy Water (1990) [Japan 1st Press]


Track Listing

01. Holy Water (4:08)
02. Walk Through Fire (4:48)
03. Stranger Stranger (4:52)
04. If You Needed Somebody (4:21)
05. Fearless (3:33)
06. Lay Your Love On Me (4:05)
07. Boys Cry Tough (5:35)
08. With You In A Heartbeat (4:34)
09. I Don't Care (4:34)
10. Never Too Late (3:41)
11. Dead Of The Night (3:41)
12. I Can't Live Without You (3:51)
13. 100 Miles (1:58)

Produced by Terry Thomas

The Band

• Brian Howe - vocals
• Mick Ralphs - guitar
• Simon Kirke - drums, vocals (lead vocals on "100 Miles"), acoustic guitar
• Felix Krish - bass

Exact Audio Copy V1.0 beta 3 from 29. August 2011

Отчёт EAC об извлечении, выполненном 29. февраля 2012, 17:01

Bad Company / Holy Water [AMCY-101]

Дисковод: Optiarc DVD RW AD-7200A Adapter: 0 ID: 0

Режим чтения : Достоверность
Использование точного потока : Да
Отключение кэша аудио : Да
Использование указателей C2 : Нет

Коррекция смещения при чтении : 48
Способность читать области Lead-in и Lead-out : Нет
Заполнение пропущенных сэмплов тишиной : Да
Удаление блоков с тишиной в начале и конце : Нет
При вычислениях CRC использовались нулевые сэмплы : Да
Интерфейс : Встроенный Win32-интерфейс для Win NT/2000

Выходной формат : Пользовательский кодировщик
Выбранный битрейт : 32 kBit/s
Качество : Высокий
Добавление ID3-тега : Нет
Утилита сжатия : C:\Program Files\Exact Audio Copy\Flac\flac.exe
Дополнительные параметры : -V -8 -T "Date=%year%" -T "Genre=%genre%" %source%


TOC извлечённого CD

Трек | Старт | Длительность | Начальный сектор | Конечный сектор
––––––––––––––––––––––––––––––––––-
1 | 0:00.00 | 4:08.07 | 0 | 18606
2 | 4:08.07 | 4:48.68 | 18607 | 40274
3 | 8:57.00 | 4:52.07 | 40275 | 62181
4 | 13:49.07 | 4:21.28 | 62182 | 81784
5 | 18:10.35 | 3:33.15 | 81785 | 97774
6 | 21:43.50 | 4:05.02 | 97775 | 116151
7 | 25:48.52 | 5:35.25 | 116152 | 141301
8 | 31:24.02 | 4:34.43 | 141302 | 161894
9 | 35:58.45 | 4:34.02 | 161895 | 182446
10 | 40:32.47 | 3:41.68 | 182447 | 199089
11 | 44:14.40 | 3:41.40 | 199090 | 215704
12 | 47:56.05 | 3:51.02 | 215705 | 233031
13 | 51:47.07 | 1:58.50 | 233032 | 241931


Характеристики диапазона извлечения и сообщения об ошибках

Выбранный диапазон

Имя файла Y:\Music\Bad Company\1990 Holy Water\Bad Company - Holy Water [AMCY-101].wav

Пиковый уровень 97.7 %
Скорость извлечения 3.8 X
Качество диапазона 100.0 %
CRC теста 576CD43A
CRC копии 576CD43A
Копирование… OK

Ошибок не произошло


AccurateRip: сводка

Трек 1 отсутствует в базе данных
Трек 2 отсутствует в базе данных
Трек 3 отсутствует в базе данных
Трек 4 отсутствует в базе данных
Трек 5 отсутствует в базе данных
Трек 6 отсутствует в базе данных
Трек 7 отсутствует в базе данных
Трек 8 отсутствует в базе данных
Трек 9 отсутствует в базе данных
Трек 10 отсутствует в базе данных
Трек 11 отсутствует в базе данных
Трек 12 отсутствует в базе данных
Трек 13 отсутствует в базе данных

Ни одного трека нет в базе AccurateRip

Конец отчёта

==== Контрольная сумма отчёта 7E77F20F03239D7B93753E2BEAAAC0AA3E8479B002E1F90DF91D7CEDD740C6A3 ====


Many thanks to the original uploader

SEE also:
Free 2006 Free Forever [2DVD]

The Law 1991 The Law [Japan 1st Press]

Paul Rodgers 2007 Live In Glasgow [Blu-ray]
–––––––––
Nitroflare