Subcategories

Badlands - Badlands (1989) [Japan 1st Press]

Posted By: Andi_Deris
Badlands - Badlands (1989) [Japan 1st Press]

Badlands - Badlands (1989) [Japan 1st Press]
EAC Rip | FLAC: Image+Cue+Log | 343 Mb | MP3 CBR 320 kbps | 120 Mb | Scans | Time: 49:51
Atlantic/Titanium Records | 22P2-2707
Hard Rock, Hair Metal, Blues Rock

Summarily dismissed from Ozzy Osbourne's band (via telegram no less), guitarist Jake E. Lee licked his wounds and formed Badlands with another former Black Sabbath singer, Ray Gillen. Despite the employment history of its principals, the group eschewed gothic themes and textures on their self-titled debut, embracing instead the bluesy swagger of Led Zeppelin and Montrose. Within the first few seconds of album opener "Live Wire" it becomes clear that Lee and Gillen made a wise stylistic choice, as the guitarist's swinging riff and vocalist's gravelly howl are electrifyingly compatible.

50 Greatest Hair Metal Albums of All Time - 35. Badlands, 'Badlands' (1989)



Badlands - Badlands (1989) [Japan 1st Press]


Track Listing

01. High Wire (03:45)
02. Dreams In The Dark (03:30)
03. Jade's Song (01:23)
04. Winter's Call (05:35)
05. Dancing On The Edge (03:27)
06. Streets Cry Freedom (06:10)
07. Hard Driver (04:50)
08. Rumblin' Train (05:46)
09. Devil's Stomp (04:54)
10. Seasons (06:20)
11. Ball & Chain (Bonus Track) (04:12)

Produced by Paul O'Neill & Badlands

The Band

• Jake E. Lee ( Mickey Ratt, Rough Cutt, Ozzy Osbourne, Enuff Z'nuff, Beggars & Thieves, Red Dragon Cartel) - guitar, keyboards
• Ray Gillen (Black Sabbath, Phenomena, Blue Murder, Sun Red Sun) - lvocals, blues harp
• Greg Chaisson (Legs Diamond, Die Happy, Steeler) - bass
• Eric Singer (Kiss, Alice Cooper, ESP, Avantasia, Lita Ford, Gary Moore, Black Sabbath, Brian May, Seventh Wonder, Gilby Clarke, The Cult, Warren DeMartini) - drums

Exact Audio Copy V0.99 prebeta 5 from 4. May 2009

Отчёт EAC об извлечении, выполненном 2. ноября 2010, 12:16

Badlands / Badlands [22P2-2707]

Дисковод: Optiarc DVD RW AD-7200A Adapter: 1 ID: 0

Режим чтения : Достоверность
Использование точного потока : Да
Отключение кэша аудио : Да
Использование указателей C2 : Нет

Коррекция смещения при чтении : 48
Способность читать области Lead-in и Lead-out : Нет
Заполнение пропущенных сэмплов тишиной : Да
Удаление блоков с тишиной в начале и конце : Нет
При вычислениях CRC использовались нулевые сэмплы : Да
Интерфейс : Встроенный Win32-интерфейс для Win NT/2000

Выходной формат : Пользовательский кодировщик
Выбранный битрейт : 128 kBit/s
Качество : Высокий
Добавление ID3-тэга : Нет
Утилита сжатия : C:\Program Files\Exact Audio Copy\Flac\flac.exe
Дополнительные параметры : -8 -V -T "artist=%a" -T "title=%t" -T "album=%g" -T "date=%y" -T "tracknumber=%n" -T "genre=%m" -T "comment=EAC


TOC извлечённого CD

Трек | Старт | Длительность | Начальный сектор | Конечный сектор
––––––––––––––––––––––––––––––––––-
1 | 0:00.00 | 3:44.45 | 0 | 16844
2 | 3:44.45 | 3:29.32 | 16845 | 32551
3 | 7:14.02 | 1:22.70 | 32552 | 38771
4 | 8:36.72 | 5:35.08 | 38772 | 63904
5 | 14:12.05 | 3:27.15 | 63905 | 79444
6 | 17:39.20 | 6:09.45 | 79445 | 107164
7 | 23:48.65 | 4:49.55 | 107165 | 128894
8 | 28:38.45 | 5:45.60 | 128895 | 154829
9 | 34:24.30 | 4:54.15 | 154830 | 176894
10 | 39:18.45 | 6:19.52 | 176895 | 205371
11 | 45:38.22 | 4:12.23 | 205372 | 224294


Характеристики диапазона извлечения и сообщения об ошибках

Выбранный диапазон

Имя файла Y:\Музыка\Badlands\1989 Badlands\Badlands - Badlands [22P2-2707].wav

Пиковый уровень 97.7 %
Качество диапазона 99.9 %
CRC теста 186A8ACF
CRC копии 186A8ACF
Копирование… OK

Ошибок не произошло


AccurateRip: сводка

Трек 1 точное извлечение (доверие 3) [25B15421]
Трек 2 точное извлечение (доверие 3) [4DB5F987]
Трек 3 точное извлечение (доверие 3) [C817B182]
Трек 4 точное извлечение (доверие 3) [F3355E19]
Трек 5 точное извлечение (доверие 3) [EDC19FFF]
Трек 6 точное извлечение (доверие 3) [7817408F]
Трек 7 точное извлечение (доверие 3) [DB877C06]
Трек 8 точное извлечение (доверие 3) [69986EBE]
Трек 9 точное извлечение (доверие 3) [7D89CD19]
Трек 10 точное извлечение (доверие 3) [CCBD5A40]
Трек 11 точное извлечение (доверие 3) [7E9823D1]

Все треки извлечены точно

Конец отчёта


Many thanks to the original uploader: ikebana
–––––––––
Nitroflare