Subcategories

Badlands - Dusk (1999)

Posted By: v3122
Badlands - Dusk (1999)

Badlands - Dusk (1999)
EAC | Flac(Image) + Cue + Log & MP3 CBR 320Kbps
2009 | Z Records, ZR1997024 | ~ 313 or 102 Mb | Scans(jpg) -> 31 Mb
Hard Rock

Badlands' long lost, third and final album, Dusk isn't really an album at all, but a batch of demos recorded between 1991 and 1992 for the group's then label, Atlantic, which first rejected them, then dropped the band, already mired in personal strife since the troubled sessions for their commercially disappointing second album, Voodoo Highway. Accordingly, the tracks that would eventually surface as Dusk were circulated as bootlegs and would have likely been mostly forgotten if not for the AIDS-related death of singer Ray Gillen, in December 1993, and the subsequent rise of the worldwide web – both of which undoubtedly helped stimulate interest in the recordings. This led, in time, to their "official" release in 1998 by the Pony Canyon label, but it hardly altered the fact that Dusk's ten tracks were mostly one-take jobs, reportedly cut by Gillen, guitarist Jake E. Lee, bassist Greg Chaisson, and drummer Jeff Martin in just six-to-eight hours. So although the musicianship was impressively solid and the sound acceptable enough, Dusk's songs lacked the usual refinements of a final album mix, and some lyrics were even ad-libbed, resulting in a rather uniform set, devoid of the characteristic variety and bombast heard on Badlands' first two albums. Instead, most cuts might accurately be described as competent blues metal (not unlike previous efforts, just duller), with rare standouts like foreboding opener "Healin'," the distinctively brash "Walking Attitude," and the notably funky "Ride the Jack," still draped under a mantle of weary resignation, reflective of the band's dispirited frame of mind at the time. Also worth mention, though are "The River" and "Lord Knows" – two promising sketches that may, with additional studio seasoning, have been transformed into powerful, slow-burning blues rockers; as well as the Eastern-flavored "Sun Red Sun," which contained intriguing traces of Alice in Chains, then on the rise along with the entire grunge nation. But, as mentioned earlier, all of the material collected on Dusk was far too raw and undeveloped for proper mainstream consumption, making its commercial existence justifiable only as a parting treasure for avowed Badlands aficionados.

by Eduardo Rivadavia, allmusic
Badlands - Dusk (1999)


Badlands - Dusk (1999):

Badlands - Dusk (1999)

Tracklist:

1. Healer
2. Sun Red Sun
3. Tribal Moon
4. The River
5. Walking Attitude
6. The Fire Lasts Forever
7. Dog
8. Fat Cat
9. Lord Knows
10. Ride The Jack

Exact Audio Copy V1.1 from 23. June 2015

EAC extraction logfile from 23. March 2017, 19:49

Badlands / Dusk

Used drive : ASUS DRW-24B1ST Adapter: 1 ID: 1

Read mode : Secure
Utilize accurate stream : Yes
Defeat audio cache : Yes
Make use of C2 pointers : No

Read offset correction : 6
Overread into Lead-In and Lead-Out : No
Fill up missing offset samples with silence : Yes
Delete leading and trailing silent blocks : No
Null samples used in CRC calculations : Yes
Used interface : Native Win32 interface for Win NT & 2000

Used output format : User Defined Encoder
Selected bitrate : 1024 kBit/s
Quality : High
Add ID3 tag : No
Command line compressor : C:\Program Files (x86)\Exact Audio Copy\Flac\flac.exe
Additional command line options : -V -8 -T "Date=%year%" -T "Genre=%genre%" %source%


TOC of the extracted CD

Track | Start | Length | Start sector | End sector
––––––––––––––––––––––––––––-
1 | 0:00.00 | 4:46.66 | 0 | 21515
2 | 4:46.66 | 5:29.16 | 21516 | 46206
3 | 10:16.07 | 3:55.10 | 46207 | 63841
4 | 14:11.17 | 4:41.21 | 63842 | 84937
5 | 18:52.38 | 2:55.51 | 84938 | 98113
6 | 21:48.14 | 4:04.32 | 98114 | 116445
7 | 25:52.46 | 3:27.17 | 116446 | 131987
8 | 29:19.63 | 4:33.66 | 131988 | 152528
9 | 33:53.54 | 4:55.60 | 152529 | 174713
10 | 38:49.39 | 4:17.53 | 174714 | 194041


Range status and errors

Selected range

Filename E:\Torrent\# MY\# Подготовка раздач\Badlands - Dusk (1999) (2009 Re-issue, Z Records, ZR1997024, U.K.)\Badlands - Dusk.wav

Peak level 100.0 %
Extraction speed 2.8 X
Range quality 100.0 %
Test CRC 8BE8BF18
Copy CRC 8BE8BF18
Copy OK

No errors occurred


AccurateRip summary

Track 1 accurately ripped (confidence 2) [FB7CDB41] (AR v2)
Track 2 accurately ripped (confidence 2) [0D7495CB] (AR v2)
Track 3 accurately ripped (confidence 2) [18B7FE1E] (AR v2)
Track 4 accurately ripped (confidence 2) [2A2C5728] (AR v2)
Track 5 accurately ripped (confidence 2) [6F834D61] (AR v2)
Track 6 accurately ripped (confidence 2) [B9432495] (AR v2)
Track 7 accurately ripped (confidence 2) [222531F8] (AR v2)
Track 8 accurately ripped (confidence 2) [F09E6644] (AR v2)
Track 9 accurately ripped (confidence 2) [7F8125C9] (AR v2)
Track 10 accurately ripped (confidence 2) [0F184525] (AR v2)

All tracks accurately ripped

End of status report

–– CUETools DB Plugin V2.1.6

[CTDB TOCID: DS4RXrOOM1VrDQ61cpGpWVOgsNs-] found
Submit result: DS4RXrOOM1VrDQ61cpGpWVOgsNs- has been confirmed
Track | CTDB Status
1 | (9/9) Accurately ripped
2 | (9/9) Accurately ripped
3 | (9/9) Accurately ripped
4 | (9/9) Accurately ripped
5 | (9/9) Accurately ripped
6 | (9/9) Accurately ripped
7 | (9/9) Accurately ripped
8 | (9/9) Accurately ripped
9 | (9/9) Accurately ripped
10 | (9/9) Accurately ripped


==== Log checksum F212916A655D55C63EBFFC15D4EC0BC755AEC8187225FC9478D70FBC15FC1053 ====

foobar2000 1.2.9 / Dynamic Range Meter 1.1.1
log date: 2017-04-29 16:53:22

––––––––––––––––––––––––––––––––––––––––
Analyzed: Badlands / Dusk
––––––––––––––––––––––––––––––––––––––––

DR Peak RMS Duration Track
––––––––––––––––––––––––––––––––––––––––
DR8 0.00 dB -8.84 dB 4:47 01-Healer
DR8 0.00 dB -9.34 dB 5:29 02-Sun Red Sun
DR8 0.00 dB -9.24 dB 3:55 03-Tribal Moon
DR9 0.00 dB -9.81 dB 4:41 04-The River
DR8 0.00 dB -9.22 dB 2:56 05-Walking Attitude
DR7 0.00 dB -8.96 dB 4:04 06-The Fire Lasts Forever
DR8 0.00 dB -8.94 dB 3:27 07-Dog
DR9 0.00 dB -10.22 dB 4:34 08-Fat Cat
DR8 0.00 dB -9.70 dB 4:56 09-Lord Knows
DR8 0.00 dB -8.90 dB 4:18 10-Ride The Jack
––––––––––––––––––––––––––––––––––––––––

Number of tracks: 10
Official DR value: DR8

Samplerate: 44100 Hz
Channels: 2
Bits per sample: 16
Bitrate: 983 kbps
Codec: FLAC

[CUETools log; Date: 29.04.2017 16:19:10; Version: 2.1.4]
[CTDB TOCID: DS4RXrOOM1VrDQ61cpGpWVOgsNs-] found.
Track | CTDB Status
1 | (11/11) Accurately ripped
2 | (11/11) Accurately ripped
3 | (11/11) Accurately ripped
4 | (11/11) Accurately ripped
5 | (11/11) Accurately ripped
6 | (11/11) Accurately ripped
7 | (11/11) Accurately ripped
8 | (11/11) Accurately ripped
9 | (11/11) Accurately ripped
10 | (11/11) Accurately ripped
[AccurateRip ID: 00108bb0-0082db29-720a1b0a] found.
Track [ CRC | V2 ] Status
01 [5d8452ef|fb7cdb41] (0+2/9) Accurately ripped
02 [e803724e|0d7495cb] (0+2/9) Accurately ripped
03 [b08ba960|18b7fe1e] (0+2/9) Accurately ripped
04 [abd141df|2a2c5728] (0+2/9) Accurately ripped
05 [bdb72c85|6f834d61] (0+2/9) Accurately ripped
06 [063014ce|b9432495] (0+2/9) Accurately ripped
07 [8671ed2b|222531f8] (0+2/9) Accurately ripped
08 [6f4bbf6d|f09e6644] (0+2/9) Accurately ripped
09 [d1079768|7f8125c9] (0+2/9) Accurately ripped
10 [a0fd2ae4|0f184525] (0+2/9) Accurately ripped
Offsetted by -68:
01 [41da89fb] (0/9) No match (V2 was not tested)
02 [084b54da] (0/9) No match (V2 was not tested)
03 [21334c84] (0/9) No match (V2 was not tested)
04 [c62e7c9f] (0/9) No match (V2 was not tested)
05 [3a8ba529] (0/9) No match (V2 was not tested)
06 [346eb112] (0/9) No match (V2 was not tested)
07 [3d5b3c7f] (0/9) No match (V2 was not tested)
08 [6dfd5939] (0/9) No match (V2 was not tested)
09 [3f75b0c0] (0/9) No match (V2 was not tested)
10 [628d9e24] (0/9) No match (V2 was not tested)
Offsetted by 24:
01 [8115e527] (0/9) No match (V2 was not tested)
02 [64264f86] (0/9) No match (V2 was not tested)
03 [3d7dac08] (0/9) No match (V2 was not tested)
04 [debf695f] (0/9) No match (V2 was not tested)
05 [647b3e2d] (0/9) No match (V2 was not tested)
06 [230aecb6] (0/9) No match (V2 was not tested)
07 [45e358b3] (0/9) No match (V2 was not tested)
08 [33858925] (0/9) No match (V2 was not tested)
09 [31957058] (0/9) No match (V2 was not tested)
10 [7aca2f64] (0/9) No match (V2 was not tested)
Offsetted by 694:
01 [2b366c6d] (0/9) No match (V2 was not tested)
02 [2d9e448c] (0/9) No match (V2 was not tested)
03 [9c3720da] (0/9) No match (V2 was not tested)
04 [9737e2bf] (0/9) No match (V2 was not tested)
05 [695cd5bf] (0/9) No match (V2 was not tested)
06 [8892f818] (0/9) No match (V2 was not tested)
07 [bbac529d] (0/9) No match (V2 was not tested)
08 [04281dcb] (0/9) No match (V2 was not tested)
09 [f90d5884] (0/9) No match (V2 was not tested)
10 [a5baed04] (0/9) No match (V2 was not tested)

Track Peak [ CRC32 ] [W/O NULL] [ LOG ]
– 100,0 [8BE8BF18] [10C65C8B] CRC32
01 100,0 [4F1E383F] [45E5ACA2]
02 100,0 [9C9CAA22] [3991FF03]
03 100,0 [DBE4C977] [71A520AE]
04 100,0 [4C242168] [7252050A]
05 100,0 [171D2103] [96424FC6]
06 100,0 [7C90781B] [32B450B6]
07 100,0 [D9F45141] [894A6CFB]
08 100,0 [C8538E9F] [3B1F8107]
09 100,0 [03247BA8] [A0D7F7A6]
10 100,0 [7ED09830] [E808E8A2]

Badlands - Dusk (1999)

All thanks go to Ginger Devil

Badlands in my Blog

Download Badlands - Dusk (1999):