Tags
Language
Tags

Band Of Horses - Albums Collection 2006-2014 (5CD) [Re-Up]

Posted By: Designol
Band Of Horses - Albums Collection 2006-2014 (5CD) [Re-Up]

Band Of Horses - Albums Collection 2006-2014 (5CD)
EAC | FLAC | Tracks (Cue&Log) ~ 1.25 Gb | Mp3 (CBR320) ~ 535 Mb | Complete Scans
Alternative/Indie Rock, Folk Rock, Southern Rock | Time: 03:14:32

Seattle indie rockers who separated themselves with a rootsy twang, gorgeous slow-burn songs, and lush, reverb-drenched production. Collection includes: 'Everything All The Time' (2006); 'Cease To Begin' (2007); 'Infinite Arms' (2010); 'Mirage Rock' (2012); 'Acoustic At The Ryman' (2014).

Emerging in 2004 with a blend of woodsy midtempo rock and reverb-laden vocals, Band of Horses gained an audience in their native Northwest before Everything All the Time made them indie rock darlings. Multi-instrumentalists Ben Bridwell and Mat Brooke founded the group after an eight-year run with Carissa's Wierd, and an early concert alongside future labelmates Iron & Wine caught the attention of Sub Pop Records. Sub Pop signed Band of Horses in 2005 and reissued their self-released EP later that year, while the band retreated to the studio to record its full-length debut. Everything All the Time appeared in March 2006 and was warmly received; however, Brooke did not tour in support of the album and had officially left the group by July, choosing instead to devote his time to another Sub Pop act, Grand Archives. Bridwell soldiered on with now-permanent bandmates Rob Hampton (bass) and Creighton Barrett (drums), playing stateside shows and touring Europe in support of the band's debut.

The bandmembers returned to the States and relocated to Mt. Pleasant, South Carolina, to be closer to their families. Soon after, Band of Horses entered the studio with producer Phil Ek (who also helmed Everything All the Time) to record their second album. Cease to Begin was released in October 2007 to extremely warm reviews; it also peaked at number 35 on the Billboard charts, giving the band a taste of commercial success as well as critical approval. Although Band of Horses spent most of the following two years on the road, they also found time to return to the recording studio, where they began working on a third album in 2009.

This time, the band's five members all contributed to the songwriting process, making Infinite Arms a collaborative effort between Bridwell, Barrett, and new members Ryan Monroe, Tyler Ramsey, and Bill Reynolds. The album hit shelves in mid-2010, marking the band's first effort for Columbia Records and earning a Grammy for its country-rock sound. Preferring to take a more grounded approach on their fourth long-player, the group tapped legendary producer Glyn Johns (the Rolling Stones, The Who), who helped to rein in some of the group's more experimental tendencies by insisting on a more intimate live approach. The resulting Mirage Rock, which was preceded by the single "Knock, Knock," arrived in September 2012. Early 2014 saw the release of live album Acoustic at the Ryman, a compilation of tracks recorded in a stripped-down fashion during a two-night stint in the spring of 2013 at Nashville's Ryman Auditorium.

While working on material for their fifth studio album, Bridwell teamed with fellow Columbia, South Carolina native Sam Beam of Iron & Wine to release a covers album titled Sing Into My Mouth in 2015. The record featured common song influences from the likes of Talking Heads, John Cale, and Sade. In the spring of 2016, Band of Horses debuted a new single, "Casual Party," from their forthcoming fifth studio LP, Why Are You OK? Released in June of that year via Interscope and Rick Rubin's American Recordings, the album was co-produced by Grandaddy's Jason Lytle with Rubin acting as executive producer.

Biography by Andrew Leahey, Allmusic.com

Band Of Horses - Albums Collection 2006-2014 (5CD) [Re-Up]





Band Of Horses - Albums Collection 2006-2014 (5CD) [Re-Up]

Band of Horses - Everything All The Time (2006)
EAC | FLAC | Tracks (Cue&Log) ~ 275 Mb | Mp3 (CBR320) ~ 107 Mb
Label: Sub Pop | # SPCD690 | Time: 00:36:10 | Scans included

Band of Horses is the phoenix ascending from the carcass of Carissa's Wierd, Ben Bridwell and Matt Brooke's former band. (But what happened to the proposed November 16th?) While the penchant for beautiful melody is present everywhere here, that's pretty much where the similarity between both groups stops. Whereas their former project centered itself on slower-than-codeine-cough-syrup-on-a-cold-day, lushly textured sad-pop, Band of Horses is a full-on indie rock band that writes loud, raw, mid-tempo pop songs and really loves Neil Young. Gone are the slow, layered, weepy, singly tempoed songs of heartbreak and loss. No more violins, no more space, no more, no more. Bridwell's vocals are stretched here (and they could be mistaken for Wayne Coyne's or a young Young's on first listen), but he and Brooke have a different m.o. on their new project. They play a plethora of instruments between them, from banjos to pedal steels and piano, and Chris Early pays bass along with an assortment of drummers that includes touring kit man Tim Meining (though Sera Cahoone (another ex-Clarissa's) sits in the chair on about half this set).

The ramped-up electric guitars are a welcome wind blowing through this heavier, denser music. Check the dreamy Chris Bell-meets-Crazy Horse "First Song" or the snare-popping "Wicked Gil," with a killer six-string finale. "Funeral"'s dynamic hints at something less meaty but then kicks into gear. It's nearly anthemic. There are more meditative moments, though. The country-ish "Part One" is acoustic and tender. But "The Great Salt Lake," which follows it, is simply majestic. There is a Beach Boys melody in here somewhere (perhaps something extrapolated from "Sloop John B"?) and Bridwell's vocal warbles dangerously close to B. Wilson's, but is much murkier – a more blissed-out, distorted jangle-fest. "Weed Party" is a silly, raucous country-rocker that crosses the Byrds with latter-day Hüsker Dü. The closer is the spare, meditative "St. Augustine"; it's as beautiful as Young's "Through My Sails," from Zuma. Everything All the Time isn't a perfect album. It gets a little long in the tooth in places and samey-sounding. The exuberance is the mirror image of Carissa's Wierd's downer reserve; it's as if the fellas were trying really hard – perhaps a little too hard – to distance themselves from their previous incarnation. Nonetheless, it's a decent first effort that warrants repeated listening.

Review by Thom Jurek, Allmusic.com

Tracklist:

01. The First Song (03:43)
02. Wicked Gil (02:57)
03. Our Swords (02:26)
04. The Funeral (05:22)
05. Part One (02:35)
06. The Great Salt Lake (04:45)
07. Weed Party (03:09)
08. I Go to the Barn Because I Like The (03:06)
09. Monsters (05:21)
10. St. Augustine (02:41)


Exact Audio Copy V0.99 prebeta 5 from 4. May 2009

EAC extraction logfile from 16. May 2011, 13:27

Band of Horses / Everything All the Time

Used drive : PIONEER DVD-RW DVR-118L Adapter: 2 ID: 0

Read mode : Secure
Utilize accurate stream : Yes
Defeat audio cache : Yes
Make use of C2 pointers : No

Read offset correction : 6
Overread into Lead-In and Lead-Out : No
Fill up missing offset samples with silence : Yes
Delete leading and trailing silent blocks : No
Null samples used in CRC calculations : Yes
Used interface : Native Win32 interface for Win NT & 2000
Gap handling : Appended to previous track

Used output format : User Defined Encoder
Selected bitrate : 128 kBit/s
Quality : High
Add ID3 tag : No
Command line compressor : C:\Program Files (x86)\Exact Audio Copy\Flac\flac.exe
Additional command line options : -8 -V -T "ARTIST=%a" -T "TITLE=%t" -T "ALBUM=%g" -T "DATE=%y" -T "TRACKNUMBER=%n" -T "GENRE=%m" -T "COMMENT=EAC FLAC -8" %s


TOC of the extracted CD

Track | Start | Length | Start sector | End sector
––––––––––––––––––––––––––––-
1 | 0:00.00 | 3:43.24 | 0 | 16748
2 | 3:43.24 | 2:57.49 | 16749 | 30072
3 | 6:40.73 | 2:26.20 | 30073 | 41042
4 | 9:07.18 | 5:22.17 | 41043 | 65209
5 | 14:29.35 | 2:35.70 | 65210 | 76904
6 | 17:05.30 | 4:45.28 | 76905 | 98307
7 | 21:50.58 | 3:09.36 | 98308 | 112518
8 | 25:00.19 | 3:06.52 | 112519 | 126520
9 | 28:06.71 | 5:21.44 | 126521 | 150639
10 | 33:28.40 | 2:41.69 | 150640 | 162783


Track 1

Filename D:\Торрент\Band of Horses\2006 - Everything All the Time\01. Band of Horses - The First Song.wav

Pre-gap length 0:00:02.00

Peak level 99.8 %
Track quality 100.0 %
Test CRC 15A37387
Copy CRC 15A37387
Accurately ripped (confidence 23) [6BBEDBCF]
Copy OK

Track 2

Filename D:\Торрент\Band of Horses\2006 - Everything All the Time\02. Band of Horses - Wicked Gil.wav

Peak level 99.8 %
Track quality 99.9 %
Test CRC 2E35A64A
Copy CRC 2E35A64A
Accurately ripped (confidence 23) [31BC61A0]
Copy OK

Track 3

Filename D:\Торрент\Band of Horses\2006 - Everything All the Time\03. Band of Horses - Our Swords.wav

Peak level 99.8 %
Track quality 100.0 %
Test CRC 25B5002F
Copy CRC 25B5002F
Accurately ripped (confidence 23) [2997C329]
Copy OK

Track 4

Filename D:\Торрент\Band of Horses\2006 - Everything All the Time\04. Band of Horses - The Funeral.wav

Peak level 99.8 %
Track quality 100.0 %
Test CRC 5D2277D3
Copy CRC 5D2277D3
Accurately ripped (confidence 23) [420B7231]
Copy OK

Track 5

Filename D:\Торрент\Band of Horses\2006 - Everything All the Time\05. Band of Horses - Part One.wav

Peak level 99.0 %
Track quality 100.0 %
Test CRC F9B29B05
Copy CRC F9B29B05
Accurately ripped (confidence 23) [F0070255]
Copy OK

Track 6

Filename D:\Торрент\Band of Horses\2006 - Everything All the Time\06. Band of Horses - The Great Salt Lake.wav

Peak level 99.8 %
Track quality 100.0 %
Test CRC 1EDDEC4D
Copy CRC 1EDDEC4D
Accurately ripped (confidence 23) [0D454863]
Copy OK

Track 7

Filename D:\Торрент\Band of Horses\2006 - Everything All the Time\07. Band of Horses - Weed Party.wav

Peak level 99.8 %
Track quality 100.0 %
Test CRC 97451075
Copy CRC 97451075
Accurately ripped (confidence 23) [EFDC2662]
Copy OK

Track 8

Filename D:\Торрент\Band of Horses\2006 - Everything All the Time\08. Band of Horses - I Go to the Barn Because I Like The.wav

Pre-gap length 0:00:00.74

Peak level 99.7 %
Track quality 100.0 %
Test CRC E76429EB
Copy CRC E76429EB
Accurately ripped (confidence 23) [46BE11E0]
Copy OK

Track 9

Filename D:\Торрент\Band of Horses\2006 - Everything All the Time\09. Band of Horses - Monsters.wav

Peak level 99.8 %
Track quality 100.0 %
Test CRC 9C836D8E
Copy CRC 9C836D8E
Accurately ripped (confidence 23) [042A4B66]
Copy OK

Track 10

Filename D:\Торрент\Band of Horses\2006 - Everything All the Time\10. Band of Horses - St. Augustine.wav

Peak level 97.6 %
Track quality 100.0 %
Test CRC 0EE3A37B
Copy CRC 0EE3A37B
Accurately ripped (confidence 23) [5D0D906D]
Copy OK


All tracks accurately ripped

No errors occurred

End of status report

foobar2000 1.2 / Dynamic Range Meter 1.1.1
log date: 2014-02-19 15:31:33

––––––––––––––––––––––––––––––––––––––––
Analyzed: Band of Horses / Everything All the Time
––––––––––––––––––––––––––––––––––––––––

DR Peak RMS Duration Track
––––––––––––––––––––––––––––––––––––––––
DR7 -0.01 dB -8.19 dB 3:43 01-The First Song
DR6 -0.01 dB -7.19 dB 2:58 02-Wicked Gil
DR7 -0.01 dB -8.49 dB 2:26 03-Our Swords
DR7 -0.01 dB -9.19 dB 5:22 04-The Funeral
DR9 -0.08 dB -10.72 dB 2:36 05-Part One
DR7 -0.01 dB -8.39 dB 4:45 06-The Great Salt Lake
DR6 -0.01 dB -7.40 dB 3:09 07-Weed Party
DR7 -0.03 dB -9.67 dB 3:07 08-I Go to the Barn Because I Like The
DR7 -0.01 dB -10.40 dB 5:22 09-Monsters
DR9 -0.21 dB -10.70 dB 2:42 10-St. Augustine
––––––––––––––––––––––––––––––––––––––––

Number of tracks: 10
Official DR value: DR7

Samplerate: 44100 Hz
Channels: 2
Bits per sample: 16
Bitrate: 864 kbps
Codec: FLAC
================================================================================




Band Of Horses - Albums Collection 2006-2014 (5CD) [Re-Up]

Band of Horses - Cease To Begin (2007)
EAC | FLAC | Tracks (Cue&Log) ~ 263 Mb | Mp3 (CBR320) ~ 113 Mb
Label: Sub Pop | # SPCD745 | Time: 00:34:54 | Scans included

When Band of Horses surfaced in 2006 with Everything All the Time, the band's rugged take on rock & roll drew quick parallels to My Morning Jacket and early Neil Young. That's mighty nice company for a young band, but co-founder Mat Brooke nevertheless left the lineup that same summer, choosing to blaze his own trail with Grand Archives instead. Ben Bridwell, Brooke's musical partner for nearly a decade, was left in control of Horses – a daunting position for the former Carissa's Weird bassist, but one that ultimately resulted in a sophisticated, mature, and altogether superior follow-up. Cease to Begin is the responsible adult to Time's reckless teenager, with Bridwell pitting his high, clear tenor against backdrops of hazy indie rock and campfire singalongs. While tracks like "Weed Party" showed the band having harmless (albeit adolescent) fun on their debut, the good times on Cease to Begin are more grown-up: a lo-fi, foot-stomping pop ditty ("The General Specific"), a brief interlude of instrumental watercolors ("Lamb on the Lam [In the City]"), a detour into twangy country ("Marry Song"). Those looking for more anthemic rock will gravitate toward kickoff track "Is There a Ghost," where the guitars are loud and Bridwell's vocals are candy-coated in reverb, but Cease to Begin shines it brightest under the twilight glow of "Detlef Schrempf." Historically, Schrempf was a German-born NBA basketball player with killer three-point accuracy – and while that's certainly an odd choice for a song title, it's easy to forget as drums beat a lazy rhythm beneath Bridwell's falsetto. Who knows whether he's singing to a hometown, a loved one, or his favorite member of the Seattle SuperSonics? It's still a thrilling listen, and the subtle humor hints that Band of Horses isn't growing up too quickly.

Review by Andrew Leahey, Allmusic.com

Tracklist:

01. Is There a Ghost (02:59)
02. Ode to LRC (04:16)
03. No One's Gonna Love You (03:37)
04. Detlef Schrempf (04:28)
05. The General Specific (03:07)
06. Lamb on the Lam (In the City) (00:50)
07. Islands on the Coast (03:34)
08. Marry Song (03:23)
09. Cigarettes, Wedding Bands (04:35)
10. Window Blues (04:01)


Exact Audio Copy V0.99 prebeta 5 from 4. May 2009

EAC extraction logfile from 16. May 2011, 14:29

Band of Horses / Cease to Begin

Used drive : PIONEER DVD-RW DVR-118L Adapter: 2 ID: 0

Read mode : Secure
Utilize accurate stream : Yes
Defeat audio cache : Yes
Make use of C2 pointers : No

Read offset correction : 6
Overread into Lead-In and Lead-Out : No
Fill up missing offset samples with silence : Yes
Delete leading and trailing silent blocks : No
Null samples used in CRC calculations : Yes
Used interface : Native Win32 interface for Win NT & 2000
Gap handling : Appended to previous track

Used output format : User Defined Encoder
Selected bitrate : 128 kBit/s
Quality : High
Add ID3 tag : No
Command line compressor : C:\Program Files (x86)\Exact Audio Copy\Flac\flac.exe
Additional command line options : -8 -V -T "ARTIST=%a" -T "TITLE=%t" -T "ALBUM=%g" -T "DATE=%y" -T "TRACKNUMBER=%n" -T "GENRE=%m" -T "COMMENT=EAC FLAC -8" %s


TOC of the extracted CD

Track | Start | Length | Start sector | End sector
––––––––––––––––––––––––––––-
1 | 0:00.00 | 2:59.50 | 0 | 13474
2 | 2:59.50 | 4:16.40 | 13475 | 32714
3 | 7:16.15 | 3:37.25 | 32715 | 49014
4 | 10:53.40 | 4:28.36 | 49015 | 69150
5 | 15:22.01 | 3:07.04 | 69151 | 83179
6 | 18:29.05 | 0:50.44 | 83180 | 86973
7 | 19:19.49 | 3:34.07 | 86974 | 103030
8 | 22:53.56 | 3:23.20 | 103031 | 118275
9 | 26:17.01 | 4:35.38 | 118276 | 138938
10 | 30:52.39 | 4:01.23 | 138939 | 157036


Track 1

Filename D:\Торрент\Band of Horses\2007 - Cease to Begin\01. Band of Horses - Is There a Ghost.wav

Pre-gap length 0:00:02.00

Peak level 99.8 %
Track quality 99.9 %
Test CRC 66C70023
Copy CRC 66C70023
Accurately ripped (confidence 36) [BF9FCB7A]
Copy OK

Track 2

Filename D:\Торрент\Band of Horses\2007 - Cease to Begin\02. Band of Horses - Ode to LRC.wav

Peak level 98.6 %
Track quality 100.0 %
Test CRC 940544A2
Copy CRC 940544A2
Accurately ripped (confidence 36) [607CBEC2]
Copy OK

Track 3

Filename D:\Торрент\Band of Horses\2007 - Cease to Begin\03. Band of Horses - No One's Gonna Love You.wav

Peak level 99.3 %
Track quality 100.0 %
Test CRC 2A2693EE
Copy CRC 2A2693EE
Accurately ripped (confidence 36) [2023B685]
Copy OK

Track 4

Filename D:\Торрент\Band of Horses\2007 - Cease to Begin\04. Band of Horses - Detlef Schrempf.wav

Peak level 96.5 %
Track quality 100.0 %
Test CRC 9B502A16
Copy CRC 9B502A16
Accurately ripped (confidence 36) [B7F3D212]
Copy OK

Track 5

Filename D:\Торрент\Band of Horses\2007 - Cease to Begin\05. Band of Horses - The General Specific.wav

Peak level 98.7 %
Track quality 100.0 %
Test CRC 50087AFC
Copy CRC 50087AFC
Accurately ripped (confidence 36) [6E35CA04]
Copy OK

Track 6

Filename D:\Торрент\Band of Horses\2007 - Cease to Begin\06. Band of Horses - Lamb on the Lam (In the City).wav

Peak level 73.2 %
Track quality 100.0 %
Test CRC 6E3E04D5
Copy CRC 6E3E04D5
Accurately ripped (confidence 36) [03FC9194]
Copy OK

Track 7

Filename D:\Торрент\Band of Horses\2007 - Cease to Begin\07. Band of Horses - Islands on the Coast.wav

Peak level 99.8 %
Track quality 100.0 %
Test CRC 0AA077C1
Copy CRC 0AA077C1
Accurately ripped (confidence 36) [5511824E]
Copy OK

Track 8

Filename D:\Торрент\Band of Horses\2007 - Cease to Begin\08. Band of Horses - Marry Song.wav

Peak level 97.5 %
Track quality 100.0 %
Test CRC 6F294756
Copy CRC 6F294756
Accurately ripped (confidence 36) [8EFC2202]
Copy OK

Track 9

Filename D:\Торрент\Band of Horses\2007 - Cease to Begin\09. Band of Horses - Cigarettes, Wedding Bands.wav

Pre-gap length 0:00:01.09

Peak level 98.7 %
Track quality 100.0 %
Test CRC 7745AA22
Copy CRC 7745AA22
Accurately ripped (confidence 36) [D7413D9A]
Copy OK

Track 10

Filename D:\Торрент\Band of Horses\2007 - Cease to Begin\10. Band of Horses - Window Blues.wav

Peak level 97.5 %
Track quality 100.0 %
Test CRC A587BB2C
Copy CRC A587BB2C
Accurately ripped (confidence 36) [4040F60D]
Copy OK


All tracks accurately ripped

No errors occurred

End of status report

foobar2000 1.2 / Dynamic Range Meter 1.1.1
log date: 2014-02-19 15:31:42

––––––––––––––––––––––––––––––––––––––––
Analyzed: Band of Horses / Cease to Begin
––––––––––––––––––––––––––––––––––––––––

DR Peak RMS Duration Track
––––––––––––––––––––––––––––––––––––––––
DR5 -0.01 dB -7.87 dB 3:00 01-Is There a Ghost
DR6 -0.12 dB -7.95 dB 4:17 02-Ode to LRC
DR6 -0.06 dB -7.67 dB 3:37 03-No One's Gonna Love You
DR8 -0.30 dB -9.59 dB 4:28 04-Detlef Schrempf
DR8 -0.11 dB -9.13 dB 3:07 05-The General Specific
DR8 -2.71 dB -13.10 dB 0:51 06-Lamb on the Lam (In the City)
DR6 -0.01 dB -6.95 dB 3:34 07-Islands on the Coast
DR8 -0.22 dB -9.53 dB 3:23 08-Marry Song
DR6 -0.11 dB -8.48 dB 4:36 09-Cigarettes, Wedding Bands
DR8 -0.22 dB -10.37 dB 4:01 10-Window Blues
––––––––––––––––––––––––––––––––––––––––

Number of tracks: 10
Official DR value: DR7

Samplerate: 44100 Hz
Channels: 2
Bits per sample: 16
Bitrate: 843 kbps
Codec: FLAC
================================================================================




Band Of Horses - Albums Collection 2006-2014 (5CD) [Re-Up]

Band of Horses - Infinite Arms (2010)
EAC | FLAC | Tracks (Cue&Log) ~ 278 Mb | Mp3 (CBR320) ~ 103 Mb
Label: Columbia | # 88697 69399 2 | Time: 00:45:17 | Scans ~ 56 Mb

Featuring a new lineup, a rather loose definition of Americana, and funding from a major label, Band of Horses' third album is a game changer. What began as a partnership between Ben Bridwell and Mat Brooke has since blossomed into a five-piece band, with Bridwell serving as the only link between the group's 2006 debut, Everything All the Time, and the present. It's only natural, then, that Infinite Arms sounds wholly different from the albums that came before it, both of which mixed guitar-driven rock with dusty, jangled folk. There's still plenty of folk to be found here, and Band of Horses bang their way through "Compliments" as a concession to their rock fans. Infinite Arms is a borderline pop album, though, dressed up in flannel and facial hair to disguise the fact that these melodies are, with few exceptions, the sweetest of the group's career. There are harmonies galore, including thick, Sacred Harp-type triads that beef up Bridwell's vocals while drawing parallels to Fleet Foxes and the Beach Boys. At times, it's hard to separate Band of Horses from their influences; "Blue Beard," although downright gorgeous, cops its verse from Smile-era Brian Wilson and its bridge from the Starland Vocal Band, and "Older" sounds like the country-rock single Gram Parsons never wrote. But the album's willingness to sample from so many different genres – roots, soft rock, alt.country, power pop, indie folk – makes it sound like nothing else in 2010, and Band of Horses connect the dots by layering everything with canyon-worthy reverb and cinematic guitars. For those who let it sink in, Infinite Arms could be a contender for the year's best summer album, not to mention the band's most cohesive record to date.

Review by Andrew Leahey, Allmusic.com

Tracklist:

01. Factory (04:35)
02. Compliments (03:27)
03. Laredo (03:12)
04. Blue Beard (03:22)
05. On My Way Back Home (03:28)
06. Infinite Arms (04:08)
07. Dilly (03:31)
08. Evening Kitchen (03:57)
09. Older (03:28)
10. For Annabelle (03:06)
11. NW Apt. (03:01)
12. Neighbor (05:58)


Exact Audio Copy V0.99 prebeta 5 from 4. May 2009

EAC extraction logfile from 16. May 2011, 16:14

Band of Horses / Infinite Arms

Used drive : PIONEER DVD-RW DVR-118L Adapter: 2 ID: 0

Read mode : Secure
Utilize accurate stream : Yes
Defeat audio cache : Yes
Make use of C2 pointers : No

Read offset correction : 6
Overread into Lead-In and Lead-Out : No
Fill up missing offset samples with silence : Yes
Delete leading and trailing silent blocks : No
Null samples used in CRC calculations : Yes
Used interface : Native Win32 interface for Win NT & 2000
Gap handling : Appended to previous track

Used output format : User Defined Encoder
Selected bitrate : 128 kBit/s
Quality : High
Add ID3 tag : No
Command line compressor : C:\Program Files (x86)\Exact Audio Copy\Flac\flac.exe
Additional command line options : -8 -V -T "ARTIST=%a" -T "TITLE=%t" -T "ALBUM=%g" -T "DATE=%y" -T "TRACKNUMBER=%n" -T "GENRE=%m" -T "COMMENT=EAC FLAC -8" %s


TOC of the extracted CD

Track | Start | Length | Start sector | End sector
––––––––––––––––––––––––––––-
1 | 0:00.00 | 4:35.32 | 0 | 20656
2 | 4:35.32 | 3:27.40 | 20657 | 36221
3 | 8:02.72 | 3:12.18 | 36222 | 50639
4 | 11:15.15 | 3:22.27 | 50640 | 65816
5 | 14:37.42 | 3:28.70 | 65817 | 81486
6 | 18:06.37 | 4:08.35 | 81487 | 100121
7 | 22:14.72 | 3:31.40 | 100122 | 115986
8 | 25:46.37 | 3:57.03 | 115987 | 133764
9 | 29:43.40 | 3:28.02 | 133765 | 149366
10 | 33:11.42 | 3:06.10 | 149367 | 163326
11 | 36:17.52 | 3:01.33 | 163327 | 176934
12 | 39:19.10 | 5:58.40 | 176935 | 203824


Track 1

Filename D:\Торрент\Band of Horses\2010 - Infinite Arms\01. Band of Horses - Factory.wav

Pre-gap length 0:00:02.00

Peak level 99.8 %
Track quality 100.0 %
Test CRC 79E119AA
Copy CRC 79E119AA
Accurately ripped (confidence 54) [8F3EDB6D]
Copy OK

Track 2

Filename D:\Торрент\Band of Horses\2010 - Infinite Arms\02. Band of Horses - Compliments.wav

Pre-gap length 0:00:00.06

Peak level 97.4 %
Track quality 99.9 %
Test CRC 0A9AC1B1
Copy CRC 0A9AC1B1
Accurately ripped (confidence 52) [FDB940B1]
Copy OK

Track 3

Filename D:\Торрент\Band of Horses\2010 - Infinite Arms\03. Band of Horses - Laredo.wav

Peak level 99.8 %
Track quality 99.9 %
Test CRC D16B6E81
Copy CRC D16B6E81
Accurately ripped (confidence 54) [63DE0D8D]
Copy OK

Track 4

Filename D:\Торрент\Band of Horses\2010 - Infinite Arms\04. Band of Horses - Blue Beard.wav

Peak level 99.2 %
Track quality 100.0 %
Test CRC CFBC071E
Copy CRC CFBC071E
Accurately ripped (confidence 54) [DA5211F0]
Copy OK

Track 5

Filename D:\Торрент\Band of Horses\2010 - Infinite Arms\05. Band of Horses - On My Way Back Home.wav

Peak level 99.6 %
Track quality 100.0 %
Test CRC CD986B04
Copy CRC CD986B04
Accurately ripped (confidence 54) [E90A1E7C]
Copy OK

Track 6

Filename D:\Торрент\Band of Horses\2010 - Infinite Arms\06. Band of Horses - Infinite Arms.wav

Peak level 99.8 %
Track quality 100.0 %
Test CRC FB13F617
Copy CRC FB13F617
Accurately ripped (confidence 54) [BF79D8F9]
Copy OK

Track 7

Filename D:\Торрент\Band of Horses\2010 - Infinite Arms\07. Band of Horses - Dilly.wav

Peak level 99.8 %
Track quality 99.9 %
Test CRC 68523869
Copy CRC 68523869
Accurately ripped (confidence 54) [87747E35]
Copy OK

Track 8

Filename D:\Торрент\Band of Horses\2010 - Infinite Arms\08. Band of Horses - Evening Kitchen.wav

Peak level 98.7 %
Track quality 100.0 %
Test CRC 4EBE90D4
Copy CRC 4EBE90D4
Accurately ripped (confidence 53) [7FA70A6F]
Copy OK

Track 9

Filename D:\Торрент\Band of Horses\2010 - Infinite Arms\09. Band of Horses - Older.wav

Pre-gap length 0:00:00.10

Peak level 99.6 %
Track quality 100.0 %
Test CRC 916150CA
Copy CRC 916150CA
Accurately ripped (confidence 52) [42EB5140]
Copy OK

Track 10

Filename D:\Торрент\Band of Horses\2010 - Infinite Arms\10. Band of Horses - For Annabelle.wav

Peak level 99.8 %
Track quality 100.0 %
Test CRC 4BD5E49F
Copy CRC 4BD5E49F
Accurately ripped (confidence 53) [64580719]
Copy OK

Track 11

Filename D:\Торрент\Band of Horses\2010 - Infinite Arms\11. Band of Horses - NW Apt..wav

Peak level 99.8 %
Track quality 100.0 %
Test CRC E5B441CB
Copy CRC E5B441CB
Accurately ripped (confidence 53) [D1F0ECA6]
Copy OK

Track 12

Filename D:\Торрент\Band of Horses\2010 - Infinite Arms\12. Band of Horses - Neighbor.wav

Peak level 99.1 %
Track quality 100.0 %
Test CRC D3A9979A
Copy CRC D3A9979A
Accurately ripped (confidence 53) [A1F3BFFB]
Copy OK


All tracks accurately ripped

No errors occurred

End of status report

foobar2000 1.2 / Dynamic Range Meter 1.1.1
log date: 2014-02-19 15:31:57

––––––––––––––––––––––––––––––––––––––––
Analyzed: Band of Horses / Infinite Arms
––––––––––––––––––––––––––––––––––––––––

DR Peak RMS Duration Track
––––––––––––––––––––––––––––––––––––––––
DR6 -0.01 dB -8.03 dB 4:35 01-Factory
DR5 -0.23 dB -7.13 dB 3:28 02-Compliments
DR6 -0.02 dB -7.38 dB 3:12 03-Laredo
DR6 -0.06 dB -8.71 dB 3:22 04-Blue Beard
DR6 -0.03 dB -8.08 dB 3:29 05-On My Way Back Home
DR6 -0.02 dB -8.02 dB 4:08 06-Infinite Arms
DR6 -0.02 dB -7.52 dB 3:32 07-Dilly
DR10 -0.11 dB -11.20 dB 3:57 08-Evening Kitchen
DR7 -0.03 dB -8.30 dB 3:28 09-Older
DR7 -0.02 dB -9.54 dB 3:06 10-For Annabelle
DR6 -0.02 dB -7.41 dB 3:01 11-NW Apt.
DR6 -0.07 dB -9.88 dB 5:59 12-Neighbor
––––––––––––––––––––––––––––––––––––––––

Number of tracks: 12
Official DR value: DR6

Samplerate: 44100 Hz
Channels: 2
Bits per sample: 16
Bitrate: 808 kbps
Codec: FLAC
================================================================================




Band Of Horses - Albums Collection 2006-2014 (5CD) [Re-Up]

Band of Horses - Mirage Rock (2012)
EAC | FLAC | Tracks (Cue&Log) ~ 237 Mb | Mp3 (CBR320) ~ 90 Mb
Label: Columbia | # 88725469052 | Time: 00:39:37 | Scans ~ 141 Mb

After key Band of Horses influence Neil Young experienced his commercial peak with Harvest – the 1972 country rock cornerstone – he famously reflected that it had put him in the middle of the road and that he soon “headed for the ditch.” On Mirage Rock – the follow-up to the Ben Bridwell-fronted act’s Grammy-nominated, game-changing 2010 release, Infinite Arms – Band of Horses keep a safe distance from the ditch with the help of producer Glyn Johns. As it happens, he’s the very man who helped the 1972-1973 period Eagles lineup hone their saccharine, radio-friendly and harmony-laden sound while Young was exploring comparatively rugged and less-traveled terrain. Seemingly enlisted to consolidate the success of the self-produced Infinite Arms, Johns brings a great deal of experience to Mirage Rock. Production-wise, while Infinite Arms was layered and cavernous, Mirage Rock has a heart-on-sleeve immediacy to it, borne out of Johns’ insistence that the band deliver well-rehearsed live takes of much of the material. However, while their third record flowed effortlessly, the ebb of Mirage Rock is, to some extent, compromised by an earnest attempt to showcase the band’s eclecticism. The strong opening trio of tracks – the pounding, lo -fi indie rock of “Knock Knock,” the striking Jayhawks-inspired country pop of “How to Live,” and the laid-back, melancholic West Coast haze of “Slow Cruel Hands of Time” – are contrasting but inspired choices for the album’s front end. However, the mid-set “Dumpster World” – sonically closer to a pastiche of George Martin’s America than the Eagles – has its understated sarcasm crushed by a chugging alt-rock mid-section. Similarly, while Bridwell’s uptempo and overtly political “Feud” approximates Graham Nash fronting the Foo Fighters, it sits awkwardly between the bluegrass-tinged “Everything’s Gonna Be Undone” and the truly beautiful, strolling Buffalo Springfield nod “Long Vows.” All in all, though, it’s the pros that outweigh the cons here. Bridwell’s natural gift for melody is given room to shine throughout and is complemented by some of the finest, most spine-tingling harmonies among the band and their contemporaries. There’s also a playful sense of humor evident here on tracks such as “A Little Biblical,” which can sometimes be lacking in the music of Fleet Foxes, Kings of Leon, and their ilk. In addition, Bridwell shows that he can match Robin Pecknold lyrically on “Slow Cruel Hands of Time,” a sincere, heartfelt rumination on growing old that takes in the grandeur of “the sky…in the yard” and the minutiae of stumbling across “a big city man” he used “to rumble with…back in high school.” Overall, though, while Mirage Rock sees Band of Horses further immerse themselves in Americana, more than anything it finds them enraptured by the simple joy of music-making. “Electric Music” – a freewheeling slice of Stones/Creedence-inspired rock – encapsulates this premise and finds them “traveling the open road” without a ditch in sight.

Review by James Wilkinson, Allmusic.com

Tracklist:

01. Knock Knock (03:58)
02. How to Live (03:26)
03. Slow Cruel Hands of Time (03:50)
04. A Little Biblical (02:54)
05. Shut-in Tourist (04:09)
06. Dumpster World (03:43)
07. Electric Music (03:32)
08. Everything's Gonna Be Undone (03:19)
09. Feud (02:56)
10. Long Vows (03:43)
11. Heartbreak on the 101 (04:01)


Exact Audio Copy V1.0 beta 3 from 29. August 2011

EAC extraction logfile from 4. August 2013, 11:45

Band Of Horses / Mirage Rock

Used drive : PIONEER DVD-RW DVR-118L Adapter: 2 ID: 0

Read mode : Secure
Utilize accurate stream : Yes
Defeat audio cache : Yes
Make use of C2 pointers : No

Read offset correction : 6
Overread into Lead-In and Lead-Out : No
Fill up missing offset samples with silence : Yes
Delete leading and trailing silent blocks : No
Null samples used in CRC calculations : Yes
Used interface : Native Win32 interface for Win NT & 2000
Gap handling : Appended to previous track

Used output format : User Defined Encoder
Selected bitrate : 1024 kBit/s
Quality : High
Add ID3 tag : No
Command line compressor : C:\Program Files (x86)\Exact Audio Copy\Flac\flac.exe
Additional command line options : -8 -V -T "ARTIST=%artist%" -T "TITLE=%title%" -T "ALBUM=%albumtitle%" -T "DATE=%year%" -T "TRACKNUMBER=%tracknr%" -T "GENRE=%genre%" -T "PERFORMER=%albuminterpret%" -T "COMPOSER=%composer%" %haslyrics%–tag-from-file=LYRICS="%lyricsfile%"%haslyrics% -T "ALBUMARTIST=%albumartist%" -T "DISCNUMBER=%cdnumber%" -T "TOTALDISCS=%totalcds%" -T "TOTALTRACKS=%numtracks%" -T "COMMENT=%comment%" %source% -o %dest%


TOC of the extracted CD

Track | Start | Length | Start sector | End sector
––––––––––––––––––––––––––––-
1 | 0:00.00 | 3:58.57 | 0 | 17906
2 | 3:58.57 | 3:26.72 | 17907 | 33428
3 | 7:25.54 | 3:50.23 | 33429 | 50701
4 | 11:16.02 | 2:54.40 | 50702 | 63791
5 | 14:10.42 | 4:09.12 | 63792 | 82478
6 | 18:19.54 | 3:43.53 | 82479 | 99256
7 | 22:03.32 | 3:32.38 | 99257 | 115194
8 | 25:35.70 | 3:19.32 | 115195 | 130151
9 | 28:55.27 | 2:56.61 | 130152 | 143412
10 | 31:52.13 | 3:43.40 | 143413 | 160177
11 | 35:35.53 | 4:01.57 | 160178 | 178309


Track 1

Filename D:\CDRip\01 - Knock Knock.wav

Pre-gap length 0:00:02.00

Peak level 100.0 %
Extraction speed 1.1 X
Track quality 100.0 %
Test CRC 8A4DCCF2
Copy CRC 8A4DCCF2
Accurately ripped (confidence 73) [784D5F11] (AR v2)
Copy OK

Track 2

Filename D:\CDRip\02 - How to Live.wav

Peak level 100.0 %
Extraction speed 1.1 X
Track quality 100.0 %
Test CRC BEE5DED1
Copy CRC BEE5DED1
Accurately ripped (confidence 73) [41DBC928] (AR v2)
Copy OK

Track 3

Filename D:\CDRip\03 - Slow Cruel Hands of Time.wav

Peak level 93.6 %
Extraction speed 1.3 X
Track quality 100.0 %
Test CRC F197D51A
Copy CRC F197D51A
Accurately ripped (confidence 73) [F523C719] (AR v2)
Copy OK

Track 4

Filename D:\CDRip\04 - A Little Biblical.wav

Peak level 95.4 %
Extraction speed 1.3 X
Track quality 100.0 %
Test CRC A1342E0A
Copy CRC A1342E0A
Accurately ripped (confidence 72) [BD6D810F] (AR v2)
Copy OK

Track 5

Filename D:\CDRip\05 - Shut-in Tourist.wav

Peak level 98.4 %
Extraction speed 1.4 X
Track quality 100.0 %
Test CRC FC4E71C2
Copy CRC FC4E71C2
Accurately ripped (confidence 73) [C07BDD09] (AR v2)
Copy OK

Track 6

Filename D:\CDRip\06 - Dumpster World.wav

Peak level 99.9 %
Extraction speed 1.5 X
Track quality 100.0 %
Test CRC 34B350D7
Copy CRC 34B350D7
Accurately ripped (confidence 73) [C6FD61CB] (AR v2)
Copy OK

Track 7

Filename D:\CDRip\07 - Electric Music.wav

Peak level 100.0 %
Extraction speed 1.6 X
Track quality 100.0 %
Test CRC 1E459295
Copy CRC 1E459295
Accurately ripped (confidence 73) [21459FA1] (AR v2)
Copy OK

Track 8

Filename D:\CDRip\08 - Everything's Gonna Be Undone.wav

Peak level 74.0 %
Extraction speed 1.6 X
Track quality 100.0 %
Test CRC DDC33FA9
Copy CRC DDC33FA9
Accurately ripped (confidence 73) [EEF3F624] (AR v2)
Copy OK

Track 9

Filename D:\CDRip\09 - Feud.wav

Peak level 100.0 %
Extraction speed 1.6 X
Track quality 100.0 %
Test CRC 254E6333
Copy CRC 254E6333
Accurately ripped (confidence 72) [58B1ED5C] (AR v2)
Copy OK

Track 10

Filename D:\CDRip\10 - Long Vows.wav

Peak level 97.5 %
Extraction speed 1.8 X
Track quality 100.0 %
Test CRC 5C20ED65
Copy CRC 5C20ED65
Accurately ripped (confidence 73) [00A06D97] (AR v2)
Copy OK

Track 11

Filename D:\CDRip\11 - Heartbreak on the 101.wav

Peak level 97.1 %
Extraction speed 1.9 X
Track quality 100.0 %
Test CRC B24C20C8
Copy CRC B24C20C8
Accurately ripped (confidence 72) [F109F2EB] (AR v2)
Copy OK


All tracks accurately ripped

No errors occurred

End of status report

–– CUETools DB Plugin V2.1.3

[CTDB TOCID: NdStKQ0Yybba_xntC_VrZkfR1UY-] found, Submit result: NdStKQ0Yybba_xntC_VrZkfR1UY- has been confirmed
[948ae281] (69/69) Accurately ripped


==== Log checksum AA30655CA0A2552A66702CD5332FCAD4BD0C1C69723AA3F34A581013649C67DF ====

foobar2000 1.2 / Dynamic Range Meter 1.1.1
log date: 2014-02-19 13:57:01

––––––––––––––––––––––––––––––––––––––––
Analyzed: Band Of Horses / Mirage Rock
––––––––––––––––––––––––––––––––––––––––

DR Peak RMS Duration Track
––––––––––––––––––––––––––––––––––––––––
DR11 0.00 dB -12.21 dB 3:59 01-Knock Knock
DR11 0.00 dB -12.87 dB 3:27 02-How to Live
DR12 -0.57 dB -14.57 dB 3:50 03-Slow Cruel Hands of Time
DR12 -0.40 dB -12.92 dB 2:55 04-A Little Biblical
DR11 -0.14 dB -13.56 dB 4:09 05-Shut-in Tourist
DR11 0.00 dB -13.88 dB 3:44 06-Dumpster World
DR11 0.00 dB -13.93 dB 3:33 07-Electric Music
DR11 -2.61 dB -14.95 dB 3:19 08-Everything's Gonna Be Undone
DR10 0.00 dB -11.71 dB 2:57 09-Feud
DR12 -0.22 dB -14.49 dB 3:44 10-Long Vows
DR11 -0.25 dB -14.57 dB 4:02 11-Heartbreak on the 101
––––––––––––––––––––––––––––––––––––––––

Number of tracks: 11
Official DR value: DR11

Samplerate: 44100 Hz
Channels: 2
Bits per sample: 16
Bitrate: 771 kbps
Codec: FLAC
================================================================================




Band Of Horses - Albums Collection 2006-2014 (5CD) [Re-Up]

Band of Horses - Acoustic At The Ryman (2014)
EAC | FLAC | Tracks (Cue&Log) ~ 228 Mb | Mp3 (CBR320) ~ 120 Mb
Label: Brown Records | # BRWN004CD | Time: 00:38:32 | Scans included

The always haunting indie rock gone alt-country sounds of Band of Horses come under a microscope on the gentle ten-song collection Acoustic at the Ryman. Culled from entire sets recorded over a two-night stand at Nashville's Ryman Auditorium in the spring of 2013, the album boils down the performances into a compact presentation of their best moments. Glorious harmonies, acoustic piano, and twangy, woodsy guitars breathe new life into songs like "Older" and "No One's Gonna Love You." Though drummer Creighton Barrett is present for the dates, the drums are so understated (if played at all) that they fade into a far-off background, making more space for the lush tones of vocal and guitar interplay. With the same soft rock moods of America, the Eagles, Crosby, Stills & Nash, or American Beauty-era Grateful Dead, the decreased volume leaves the songs every bit as moody and ominous as their more electric studio versions, but far clearer. Even their relentlessly dark 2006 hit "The Funeral" takes on a particular gentleness and focus that was lost in the layers of reverb and tough rock dynamics of the original.

Review by Fred Thomas, Allmusic.com

Tracklist:

01. Marry Song (04:15)
02. Slow Cruel Hands of Time (03:44)
03. Detlef Schrempf (04:34)
04. Everything's Gonna Be Undone (03:13)
05. No One's Gonna Love You (03:55)
06. Factory (03:48)
07. Older (03:15)
08. Wicked Gil (03:11)
09. The Funeral (05:07)
10. Neighbor (03:25)


Exact Audio Copy V1.0 beta 3 from 29. August 2011

EAC extraction logfile from 17. February 2014, 11:58

Band of Horses / Acoustic at the Ryman

Used drive : PIONEER DVD-RW DVR-118L Adapter: 2 ID: 0

Read mode : Secure
Utilize accurate stream : Yes
Defeat audio cache : Yes
Make use of C2 pointers : No

Read offset correction : 6
Overread into Lead-In and Lead-Out : No
Fill up missing offset samples with silence : Yes
Delete leading and trailing silent blocks : No
Null samples used in CRC calculations : Yes
Used interface : Native Win32 interface for Win NT & 2000
Gap handling : Appended to previous track

Used output format : User Defined Encoder
Selected bitrate : 1024 kBit/s
Quality : High
Add ID3 tag : No
Command line compressor : C:\Program Files (x86)\Exact Audio Copy\Flac\flac.exe
Additional command line options : -8 -V -T "ARTIST=%artist%" -T "TITLE=%title%" -T "ALBUM=%albumtitle%" -T "DATE=%year%" -T "TRACKNUMBER=%tracknr%" -T "GENRE=%genre%" -T "PERFORMER=%albuminterpret%" -T "COMPOSER=%composer%" %haslyrics%–tag-from-file=LYRICS="%lyricsfile%"%haslyrics% -T "ALBUMARTIST=%albumartist%" -T "DISCNUMBER=%cdnumber%" -T "TOTALDISCS=%totalcds%" -T "TOTALTRACKS=%numtracks%" -T "COMMENT=%comment%" %source% -o %dest%


TOC of the extracted CD

Track | Start | Length | Start sector | End sector
––––––––––––––––––––––––––––-
1 | 0:00.00 | 4:15.31 | 0 | 19155
2 | 4:15.31 | 3:44.30 | 19156 | 35985
3 | 7:59.61 | 4:34.51 | 35986 | 56586
4 | 12:34.37 | 3:13.54 | 56587 | 71115
5 | 15:48.16 | 3:55.10 | 71116 | 88750
6 | 19:43.26 | 3:48.36 | 88751 | 105886
7 | 23:31.62 | 3:15.39 | 105887 | 120550
8 | 26:47.26 | 3:11.59 | 120551 | 134934
9 | 29:59.10 | 5:07.57 | 134935 | 158016
10 | 35:06.67 | 3:25.42 | 158017 | 173433


Track 1

Filename D:\CDRip\01 - Marry Song.wav

Pre-gap length 0:00:02.00

Peak level 100.0 %
Extraction speed 1.1 X
Track quality 100.0 %
Test CRC 07CB90C6
Copy CRC 07CB90C6
Track not present in AccurateRip database
Copy OK

Track 2

Filename D:\CDRip\02 - Slow Cruel Hands of Time.wav

Peak level 100.0 %
Extraction speed 1.1 X
Track quality 99.9 %
Test CRC 37A1DA4A
Copy CRC 37A1DA4A
Track not present in AccurateRip database
Copy OK

Track 3

Filename D:\CDRip\03 - Detlef Schrempf.wav

Peak level 100.0 %
Extraction speed 1.4 X
Track quality 100.0 %
Test CRC 165A0F6D
Copy CRC 165A0F6D
Track not present in AccurateRip database
Copy OK

Track 4

Filename D:\CDRip\04 - Everything's Gonna Be Undone.wav

Peak level 100.0 %
Extraction speed 1.4 X
Track quality 100.0 %
Test CRC 25D2BD9E
Copy CRC 25D2BD9E
Track not present in AccurateRip database
Copy OK

Track 5

Filename D:\CDRip\05 - No One's Gonna Love You.wav

Peak level 100.0 %
Extraction speed 1.5 X
Track quality 100.0 %
Test CRC 1A19F8D8
Copy CRC 1A19F8D8
Track not present in AccurateRip database
Copy OK

Track 6

Filename D:\CDRip\06 - Factory.wav

Peak level 100.0 %
Extraction speed 1.6 X
Track quality 100.0 %
Test CRC 3684EE66
Copy CRC 3684EE66
Track not present in AccurateRip database
Copy OK

Track 7

Filename D:\CDRip\07 - Older.wav

Peak level 96.9 %
Extraction speed 1.4 X
Track quality 99.9 %
Test CRC 0B7B23EF
Copy CRC 0B7B23EF
Track not present in AccurateRip database
Copy OK

Track 8

Filename D:\CDRip\08 - Wicked Gil.wav

Peak level 100.0 %
Extraction speed 1.7 X
Track quality 100.0 %
Test CRC 30CA446B
Copy CRC 30CA446B
Track not present in AccurateRip database
Copy OK

Track 9

Filename D:\CDRip\09 - The Funeral.wav

Peak level 100.0 %
Extraction speed 1.7 X
Track quality 99.9 %
Test CRC 40D2231B
Copy CRC 40D2231B
Track not present in AccurateRip database
Copy OK

Track 10

Filename D:\CDRip\10 - Neighbor.wav

Peak level 100.0 %
Extraction speed 1.8 X
Track quality 100.0 %
Test CRC 9053EB80
Copy CRC 9053EB80
Track not present in AccurateRip database
Copy OK


None of the tracks are present in the AccurateRip database

No errors occurred

End of status report

–– CUETools DB Plugin V2.1.3

[CTDB TOCID: tx1VovAO6LKKwxVtfD_ObiE3t9c-] found, Submit result: tx1VovAO6LKKwxVtfD_ObiE3t9c- has been confirmed
[83b50fdf] (2/2) Accurately ripped


==== Log checksum 6D1E0233093358AAF389DD485FD33C6E8F2F82D5BBC781C912886600239E9A76 ====

foobar2000 1.2 / Dynamic Range Meter 1.1.1
log date: 2014-02-19 15:32:20

––––––––––––––––––––––––––––––––––––––––
Analyzed: Band of Horses / Acoustic at the Ryman
––––––––––––––––––––––––––––––––––––––––

DR Peak RMS Duration Track
––––––––––––––––––––––––––––––––––––––––
DR11 0.00 dB -13.32 dB 4:15 01-Marry Song
DR11 0.00 dB -14.00 dB 3:44 02-Slow Cruel Hands of Time
DR12 0.00 dB -14.11 dB 4:35 03-Detlef Schrempf
DR11 0.00 dB -12.93 dB 3:14 04-Everything's Gonna Be Undone
DR11 0.00 dB -14.16 dB 3:55 05-No One's Gonna Love You
DR11 0.00 dB -13.64 dB 3:48 06-Factory
DR11 -0.27 dB -14.50 dB 3:16 07-Older
DR12 0.00 dB -15.09 dB 3:12 08-Wicked Gil
DR10 0.00 dB -13.55 dB 5:08 09-The Funeral
DR11 0.00 dB -13.61 dB 3:26 10-Neighbor
––––––––––––––––––––––––––––––––––––––––

Number of tracks: 10
Official DR value: DR11

Samplerate: 44100 Hz
Channels: 2
Bits per sample: 16
Bitrate: 689 kbps
Codec: FLAC
================================================================================




All thanks to original releaser - Знак Качества

More interesting music in My Blog