Subcategories

Bangor Flying Circus - Bangor Flying Circus (1969)

Posted By: v3122
Bangor Flying Circus - Bangor Flying Circus (1969)

Bangor Flying Circus - Bangor Flying Circus (1969)
EAC | Flac(Image) + Cue + Log & MP3 CBR 320Kbps
2017 | Big Pink Music, Big Pink 511 | ~ 304 or 109 Mb | Scans(jpg) -> 24 Mb
Progressive Rock, Psychedelic Rock

This album was release in 1969, before Emerson Lake & Palmer. You won't find a heavy, distorted organ, embedded classical/baroque music, or psychedelic sounds, what most people associate with progressive rock. What you will find are strong rock composition sprinkled with jazz and occasional country fills by guitarist Alan DeCarlo. Alan is the better vocalist, although Dave Wolinski, the keyboard/bass player does a excellent job as well. Dave provides better bass on the organ pedals than most bass players. The guitar solos are searing on some pieces like 'Violent Man' and 'In the Woods'. DeCarlo knows how to take a motif and develop it, vary it, play it in octaves, scats and utilizes other techniques to create solos that demand to be listened to time and again. The drummer, Michael Tegza, together with Wolinsky know how to compliment DeCarlo's solos. Wolinski demonstrates a good jazzy piano solo on 'Violent Man', and has a few organ solos spread throughout the album. As a guitar player, I cannot recommend this album high enough.

by yamex5, rateyourmusic
Bangor Flying Circus - Bangor Flying Circus (1969):

Bangor Flying Circus - Bangor Flying Circus (1969)

Tracklist:

01. Violent Man
02. Come On People
03. Ode To Sadness
04. Concerto For Clouds
05. A Change In Our Lives
06. Someday I'll Find
07. Mama Don't You Know (That Your Daughter's Acting Mighty Strange)
08. In The Woods
09. Norwegian Wood (This Bird Has Flown)

Musicians:

Michael Tegza - drums, percussion
David (Hawk) Wolinski - keyboards, vocals, percussion
Alan DeCarlo (Addison Al) - guitars, vocals, percussion


Exact Audio Copy V1.1 from 23. June 2015

Отчёт EAC об извлечении, выполненном 11. сентября 2017, 13:13

Bangor Flying Circus / Bangor Flying Circus

Дисковод: ASUS DRW-24B3ST Adapter: 0 ID: 0

Режим чтения : Достоверность
Использование точного потока : Да
Отключение кэша аудио : Да
Использование указателей C2 : Нет

Коррекция смещения при чтении : 6
Способность читать области Lead-in и Lead-out : Нет
Заполнение пропущенных сэмплов тишиной : Да
Удаление блоков с тишиной в начале и конце : Нет
При вычислениях CRC использовались нулевые сэмплы : Да
Интерфейс : Установленный внешний ASPI-интерфейс

Выходной формат : Пользовательский кодировщик
Выбранный битрейт : 1024 kBit/s
Качество : Высокий
Добавление ID3-тега : Нет
Утилита сжатия : C:\Program Files (x86)\Exact Audio Copy\Flac\flac.exe
Дополнительные параметры : -V -8 -T "Date=%year%" -T "Genre=%genre%" %source%


TOC извлечённого CD

Трек | Старт | Длительность | Начальный сектор | Конечный сектор
––––––––––––––––––––––––––––––––––-
1 | 0:00.00 | 6:09.26 | 0 | 27700
2 | 6:09.26 | 4:12.31 | 27701 | 46631
3 | 10:21.57 | 6:06.14 | 46632 | 74095
4 | 16:27.71 | 5:26.35 | 74096 | 98580
5 | 21:54.31 | 4:14.18 | 98581 | 117648
6 | 26:08.49 | 5:15.56 | 117649 | 141329
7 | 31:24.30 | 3:21.08 | 141330 | 156412
8 | 34:45.38 | 4:20.25 | 156413 | 175937
9 | 39:05.63 | 6:10.11 | 175938 | 203698


Характеристики диапазона извлечения и сообщения об ошибках

Выбранный диапазон

Имя файла E:\Torrents\Bangor Flying Circus - 1969 - Bangor Flying Circus\Bangor Flying Circus - Bangor Flying Circus.wav

Пиковый уровень 98.9 %
Скорость извлечения 8.0 X
Качество диапазона 100.0 %
CRC теста 18CA3936
CRC копии 18CA3936
Копирование… OK

Ошибок не произошло


AccurateRip: сводка

Трек 1 отсутствует в базе данных
Трек 2 отсутствует в базе данных
Трек 3 отсутствует в базе данных
Трек 4 отсутствует в базе данных
Трек 5 отсутствует в базе данных
Трек 6 отсутствует в базе данных
Трек 7 отсутствует в базе данных
Трек 8 отсутствует в базе данных
Трек 9 отсутствует в базе данных

Ни одного трека нет в базе AccurateRip

Конец отчёта

==== Контрольная сумма отчёта 8957005CF987ADC7F589957B1ABE1A02299EF2EF55DF3F43CEB8344C6D4CAF80 ====


[CUETools log; Date: 11.09.2017 15:26:26; Version: 2.1.5]
[AccurateRip ID: 000fe677-00733a28-820a9b09] disk not present in database.

Track Peak [ CRC32 ] [W/O NULL] [ LOG ]
– 98,9 [18CA3936] [9A875686] CRC32
01 98,9 [8FA9E302] [B715C6D7]
02 98,9 [6CF8DBAE] [EFE292E3]
03 98,8 [CB753CE1] [D66285C0]
04 98,8 [81459C62] [A93ACF58]
05 98,9 [93863FF6] [88D6F695]
06 98,9 [7DE95651] [ADDA9D62]
07 98,8 [EA3C530F] [55E1650B]
08 98,9 [45477778] [0C91E02A]
09 98,9 [DD9464C9] [E02EB359]


Bangor Flying Circus - Bangor Flying Circus (1969)

All thanks go to Копысов

Download Bangor Flying Circus - Bangor Flying Circus (1969):