Barry Manilow - Barry (1980) [2016, Japanese Reissue]

Posted By: BlondStyle
Barry Manilow - Barry (1980) [2016, Japanese Reissue]

Barry Manilow - Barry (1980) [2016, Japanese Reissue]
EAC | FLAC, Img+CUE+LOG+Full Scans-600dpi (PNG) | 490,62 Mb (incl. 5%)
MP3 | CBR, 320 kbps | Full Scans-600dpi (JPEG) | 164,50 Mb (incl. 5%)
Genre: Pop/Rock, Vocal | Label: Sony Music Labels Inc. (Japan) | Released: 2016-07-27 | 41:29 Min

"Barry" is the self-titled album released by singer and songwriter Barry Manilow in 1980. The album reached Platinum status. The tracks were recorded at Evergreen Recording Studios in Burbank, California. Manilow co-wrote with Maurice White of Earth, Wind & Fire the album track "Only in Chicago". "We Still Have Time" was taken from the film Tribute. The album scored one top ten pop hit, "I Made It Through the Rain", which reached number ten, in late 1980. This album was released at a time when Manilow's success was having its greatest impact overseas, particularly in the UK. His music was starting to be pushed almost entirely to adult contemporary music radio formats, known back then as easy listening. Although "I Made It Through the Rain" was his only Top-10 on the Hot 100 from this album, he managed to reach the Top-10 on the Adult-Contemporary lists with "Lonely Together" and the bouncy up-tempo "Bermuda Triangle" was a Top-20 hit in the UK in mid-1981. ~Wikipedia~
Barry Manilow - Barry (1980) [2016, Japanese Reissue]

Barry Manilow - Barry (1980) [2016, Japanese Reissue]


Release of this album: 1980, November, 19 [LP Arista Records, Cat.# AL 9537, USA]
Release of this CD: 2016, July, 27 [CD Sony Music Labels Inc. (Japan), Cat.# SICP-4884 / EAN: 4547366264654]
℗ © 1980 Sony Music Entertainment
Manufactured By – Sony Music Labels Inc.
Made in Japan


Art Direction – Donn Davenport
Concertmaster – Sid Sharp
Contractor – Shaun Harris
Crew [Assistant to Mr. Manilow] – Paul Brownstein
Engineer – Michael Delugg (tracks: 2, 7, 8, 9), Murray McFadden (tracks: 1, 3, 4, 5, 6, 10)
Engineer [Assistant] – Gary Luchs (tracks: 1, 4, 5, 6, 10)
Photography By [Back Cover] – Jay Thompson
Photography By [Cover] – Paul Jasmin
Piano – Barry Manilow
Producer – Barry Manilow, Ron Dante (tracks: 2 to 4, 6 to 10)


Tracklist:

01. Lonely Together (04:25)
(Kenny Nolan)
02. Bermuda Triangle (03:50)
(Bruce Sussman, Jack Feldman / Barry Manilow)
03. I Made It Through The Rain (04:28)
(B. Manilow, B. Sussman, D. Shepperd, J. Feldman / Gerard Kenny)
04. Twenty Four Hours A Day (03:29)
(Marty Panzer / Barry Manilow)
05. Dance Away (04:01)
(Richard Kerr, Troy Seals)
06. Life Will Go On (03:55)
(John Bettis / Richard Kerr)
07. Only In Chicago (03:38)
(Barry Manilow / Maurice White)
08. The Last Duet (with Lily Tomlin) (04:05)
(Bruce Sussman, Jack Feldman / Barry Manilow)
09. London (05:24)
(Bruce Sussman, Jack Feldman / Barry Manilow)
10. We Still Have Time (Theme From The Motion Picture ''Tribute'') (04:15)
(Bruce Sussman, Jack Feldman / Barry Manilow)

Exact Audio Copy V1.0 beta 3 from 29. August 2011

EAC extraction logfile from 9. August 2016, 21:07

Barry Manilow / Barry

Used drive : PIONEER BD-RW BDR-208D Adapter: 1 ID: 0

Read mode : Secure
Utilize accurate stream : Yes
Defeat audio cache : Yes
Make use of C2 pointers : No

Read offset correction : 667
Overread into Lead-In and Lead-Out : No
Fill up missing offset samples with silence : Yes
Delete leading and trailing silent blocks : No
Null samples used in CRC calculations : Yes
Used interface : Native Win32 interface for Win NT & 2000

Used output format : Internal WAV Routines
Sample format : 44.100 Hz; 16 Bit; Stereo


TOC of the extracted CD

Track | Start | Length | Start sector | End sector
––––––––––––––––––––––––––––-
1 | 0:00.00 | 4:24.54 | 0 | 19853
2 | 4:24.54 | 3:50.27 | 19854 | 37130
3 | 8:15.06 | 4:28.20 | 37131 | 57250
4 | 12:43.26 | 3:28.66 | 57251 | 72916
5 | 16:12.17 | 4:00.41 | 72917 | 90957
6 | 20:12.58 | 3:55.07 | 90958 | 108589
7 | 24:07.65 | 3:38.35 | 108590 | 124974
8 | 27:46.25 | 4:04.42 | 124975 | 143316
9 | 31:50.67 | 5:23.40 | 143317 | 167581
10 | 37:14.32 | 4:14.50 | 167582 | 186681


Range status and errors

Selected range

Filename D:\BlondStyle\Barry Manilow - Barry.wav

Peak level 99.7 %
Extraction speed 6.5 X
Range quality 100.0 %
Test CRC 96243022
Copy CRC 96243022
Copy OK

No errors occurred


AccurateRip summary

Track 1 not present in database
Track 2 not present in database
Track 3 not present in database
Track 4 not present in database
Track 5 not present in database
Track 6 not present in database
Track 7 not present in database
Track 8 not present in database
Track 9 not present in database
Track 10 not present in database

None of the tracks are present in the AccurateRip database

End of status report

–– CUETools DB Plugin V2.1.3

[CTDB TOCID: gcFCljL5THUIFvdnXm0w1.JbJQY-] found, Submit result: gcFCljL5THUIFvdnXm0w1.JbJQY- has been confirmed
[a8a013d2] (2/2) Accurately ripped


==== Log checksum CDD74A74D6B9ECBB98D99F11A26C1C035C3A42A9076EE239EF71F058EE19CE5B ====

foobar2000 1.3.12 beta 4 / Dynamic Range Meter 1.1.1
log date: 2016-09-21 00:48:32

––––––––––––––––––––––––––––––––––––––––
Analyzed: Barry Manilow / Barry
––––––––––––––––––––––––––––––––––––––––

DR Peak RMS Duration Track
––––––––––––––––––––––––––––––––––––––––
DR11 -0.10 dB -14.19 dB 4:25 01-Lonely Together
DR11 -0.03 dB -12.18 dB 3:50 02-Bermuda Triangle
DR11 -0.03 dB -14.15 dB 4:28 03-I Made It Through The Rain
DR10 -0.02 dB -12.50 dB 3:29 04-Twenty Four Hours A Day
DR11 -0.03 dB -13.86 dB 4:01 05-Dance Away
DR9 -0.02 dB -12.96 dB 3:55 06-Life Will Go On
DR11 -0.03 dB -12.80 dB 3:38 07-Only In Chicago
DR11 -0.05 dB -12.93 dB 4:05 08-The Last Duet (with Lily Tomlin)
DR12 -0.03 dB -14.80 dB 5:24 09-London
DR11 -0.03 dB -14.82 dB 4:15 10-We Still Have Time (Theme From The Motion Picture ''Tribute'')
––––––––––––––––––––––––––––––––––––––––

Number of tracks: 10
Official DR value: DR11

Samplerate: 44100 Hz
Channels: 2
Bits per sample: 16
Bitrate: 838 kbps
Codec: FLAC
================================================================================


See also:
Barry Manilow - This One's For You (1976) [2002, Remastered Reissue]
Barry Manilow - Even Now (1978) [1994, Japanese Reissue]
Barry Manilow - I Wanna Do It With You (1982) [1990, Reissue]
Nitroflare
FLAC+Scans@600dpi(PNG) | MP3+Scans@600dpi(JPEG)
password: BlondStyle