Subcategories
Tags
Language
Tags

Barthold Kuijken, Indianapolis Baroque Orchestra - The Colorful Telemann (2020)

Posted By: ArlegZ
Barthold Kuijken, Indianapolis Baroque Orchestra - The Colorful Telemann (2020)

Barthold Kuijken, Indianapolis Baroque Orchestra - The Colorful Telemann: Ouverture, Concertos, Sonata, Sinfonia Melodica (2020)
EAC | FLAC | Image (Cue & Log) ~ 316 Mb | Total time: 64:44 | Scans included
Classical | Label: Naxos | # 8.573900 | Recorded: 2019

The Colourful Telemann presents works from different periods of Georg Philipp Telemanns life, reflecting his lively personality and exploring his seemingly unlimited invention over a wide variety of styles and genres. A contemporary of Bach and Handel, Telemann wrote music that stands out for its delightful and remarkably generous character, each piece like a leisurely walk with a good friend. From the German and French influences of the earlier Sonata to the dignified Sinfonia Melodica, possibly composed in the year of his death, this is Telemann at his best. Barthold Kuijken is an eminent leader in the field of early music. A virtuoso traverso soloist, teacher and conductor, he has shaped the fields of historical flutes and historically informed performance over the last 40 years. Kuijken has widely performed and recorded the repertoire for the Baroque flute and has collaborated with other early music specialists including his brothers, Sigiswald Kuijken and Wieland Kuijken, Frans Brüggen, Gustav Leonhardt and Paul Dombrecht.

Performer:
Indianapolis Baroque Orchestra
Barthold Kuijken, director

Track List:
01. Overture (Suite) in C Minor, TWV 55:c4
Concerto for 2 Flutes in G Major, TWV 53:G1
02. I. [Vivace]
03. II. Allegro
04. III. Largo
05. IV. Presto
Sonata in E Minor, TWV 50:4
06. I. Gravement
07. II. Alla breve
08. III. Air
09. IV. Tendrement
10. V. Gay
Concerto for 2 Flutes, Violin and Cello in D Major, TWV 54:D1
11. I. Vivace
12. II. Siciliana
13. III. Allegro
14. IV. Gavotte: Presto
Sinfonia Melodica in C Major, TWV 50:2
15. I. Vivace assai
16. II. Sarabande
17. III. Bourrée
18. IV. Menuet en Rondeau
19. V. Loure
20. VI. Chaconnette
21. VII. Gigue en Canarie


Exact Audio Copy V1.3 from 2. September 2016

EAC extraction logfile from 10. March 2021, 19:26

Barthold Kuijken, Indianapolis Baroque Orchestra / The Colorful Telemann

Used drive : HL-DT-STDVDRAM GH24NS95 Adapter: 1 ID: 0

Read mode : Secure
Utilize accurate stream : Yes
Defeat audio cache : Yes
Make use of C2 pointers : No

Read offset correction : 6
Overread into Lead-In and Lead-Out : No
Fill up missing offset samples with silence : Yes
Delete leading and trailing silent blocks : No
Null samples used in CRC calculations : Yes
Used interface : Native Win32 interface for Win NT & 2000

Used output format : User Defined Encoder
Selected bitrate : 768 kBit/s
Quality : High
Add ID3 tag : No
Command line compressor : C:\Program Files\Exact Audio Copy\FLAC\FLAC.EXE
Additional command line options : -6 -V -T "ARTIST=%artist%" -T "TITLE=%title%" -T "ALBUM=%albumtitle%" -T "DATE=%year%" -T "TRACKNUMBER=%tracknr%" -T "GENRE=%genre%" -T "COMMENT=%comment%" -T "BAND=%albuminterpret%" -T "ALBUMARTIST=%albuminterpret%" -T "COMPOSER=%composer%" %haslyrics%–tag-from-file=LYRICS="%lyricsfile%"%haslyrics% -T "DISCNUMBER=%cdnumber%" -T "TOTALDISCS=%totalcds%" -T "TOTALTRACKS=%numtracks%" %hascover%–picture="%coverfile%"%hascover% %source% -o %dest%


TOC of the extracted CD

Track | Start | Length | Start sector | End sector
––––––––––––––––––––––––––––-
1 | 0:00.00 | 6:28.64 | 0 | 29163
2 | 6:28.64 | 2:31.50 | 29164 | 40538
3 | 9:00.39 | 3:18.35 | 40539 | 55423
4 | 12:18.74 | 2:25.25 | 55424 | 66323
5 | 14:44.24 | 3:16.64 | 66324 | 81087
6 | 18:01.13 | 2:37.60 | 81088 | 92922
7 | 20:38.73 | 2:49.66 | 92923 | 105663
8 | 23:28.64 | 1:40.31 | 105664 | 113194
9 | 25:09.20 | 3:22.13 | 113195 | 128357
10 | 28:31.33 | 2:55.69 | 128358 | 141551
11 | 31:27.27 | 5:31.49 | 141552 | 166425
12 | 36:59.01 | 5:31.68 | 166426 | 191318
13 | 42:30.69 | 6:32.16 | 191319 | 220734
14 | 49:03.10 | 4:31.15 | 220735 | 241074
15 | 53:34.25 | 2:28.02 | 241075 | 252176
16 | 56:02.27 | 2:32.57 | 252177 | 263633
17 | 58:35.09 | 1:13.74 | 263634 | 269182
18 | 59:49.08 | 1:43.72 | 269183 | 276979
19 | 61:33.05 | 0:59.55 | 276980 | 281459
20 | 62:32.60 | 1:08.63 | 281460 | 286622
21 | 63:41.48 | 0:59.41 | 286623 | 291088


Range status and errors

Selected range

Filename C:\Program Files\Exact Audio Copy\Barthold Kuijken - The Colorful Telemann.wav

Peak level 76.4 %
Extraction speed 2.0 X
Range quality 100.0 %
Test CRC 70C793CD
Copy CRC 70C793CD
Copy OK

No errors occurred


AccurateRip summary

Track 1 not present in database
Track 2 not present in database
Track 3 not present in database
Track 4 not present in database
Track 5 not present in database
Track 6 not present in database
Track 7 not present in database
Track 8 not present in database
Track 9 not present in database
Track 10 not present in database
Track 11 not present in database
Track 12 not present in database
Track 13 not present in database
Track 14 not present in database
Track 15 not present in database
Track 16 not present in database
Track 17 not present in database
Track 18 not present in database
Track 19 not present in database
Track 20 not present in database
Track 21 not present in database

None of the tracks are present in the AccurateRip database

End of status report

Barthold Kuijken, Indianapolis Baroque Orchestra - The Colorful Telemann (2020)

Thanks to the original releaser