Subcategories

Beastie Boys - Beastie Boys Anthology: The Sounds of Science (1999) 2CDs

Posted By: Designol
Beastie Boys - Beastie Boys Anthology: The Sounds of Science (1999) 2CDs

Beastie Boys - Beastie Boys Anthology: The Sounds of Science (1999) 2CDs
EAC | FLAC | Tracks (Cue&Log) ~ 788 Mb | Mp3 (CBR320) ~ 287 Mb | Scans ~ 552 Mb
Label: Grand Royal, Capitol Records | # 7243 5 22940 2 2 | Time: 02:04:29
Old-School Hip Hop, Alternative Rap, Hardcore Punk, Alternative Rock

Beastie Boys Anthology: The Sounds of Science is the first Beastie Boys anthology composed of greatest hits, B-sides, and previously unreleased tracks. The retail release comes with a tri-fold sleeve that displays the majority of the band's album covers, as well as a booklet of liner notes. The title of the anthology is from the song of the same name, featured on their second album, Paul's Boutique.

At the close of the '90s, the Beastie Boys had only released five albums, which may not seem like enough music to provide the foundation for a double-disc retrospective. But between 1981 and 1999, they released countless B-sides, non-LP singles, and EPs, resulting in a sprawling discography ripe for a compilation. So, in 1999, the Beasties released the two-disc compilation The Sounds of Science, which covers every incarnation of the band from Pollywog Stew to Hello Nasty. Inevitably, some well-known songs are missing – only three cuts from Licensed to Ill are here, and their breakthrough single "Rock Hard" had to be pulled when AC/DC refused permission for a sample. Ultimately, that doesn't matter, since the set captures the spirit of the Beasties so well. Usually, compilations that don't follow chronological order are a little muddled, but The Sounds of Science benefits from its jumbled sequencing, since it emphasizes the band's astonishing musical reach and consistency. After all, every album since Paul's Boutique has followed a similarly unpredictable pattern, as the group moved from hip-hop to punk to funk to jazz. What's remarkable about The Sounds of Science is that it has all the obvious suspects, but since they're rubbing singles with album tracks and B-sides like "Skills to Pay the Bills," two outtakes from the abandoned country album, alternate versions of "Jimmy James" and "Three MC's and One DJ," Fatboy Slim's brilliant remix of "Body Movin'," goofs like the Biz Markie-sung cover of "Benny and the Jets," and the excellent new single "Alive," it all sounds fresh. There's much more than hits here, but The Sounds of Science achieves something most anthologies don't: it summarizes the attitude and spirit of the band, while offering some new revelations even for dedicated fans.

Review by Stephen Thomas Erlewine, Allmusic.com

Simultaneously overconfident and generous as usual, this asynchronously omnivorous package has all the hits, only there aren't that many, so 16 of 42 tracks are "rarities." In their opinion, that doesn't include the revelating early single "She's On It" or the fine late B side "Skills To Pay the Bills." It does include Fatboy Slim's "Body Movin' " remix, which is as much fun as "Fight for Your Right," which they apologize for, although they're proud to debut "Boomin' Granny," which puts moves on a "sassy, sophisticated, sexy" 80-year-old in the checkout line (hey, that's my mama–and the song's nice in an offensive sort of way, their calling card). Of course, their rarities can be as flat as anybody else's, as can their showcases, like the Latin-funk "Sabrosa" on its third go-round. Still rappers and rockers, still wise guys seeking wisdom, they'll try anything twice and convince half their many fans to like it, usually to the benefit of said fans if not musical history. This is their claim on said history. They've earned it.

Review by Robert Christgau (A-)

Beastie Boys - Beastie Boys Anthology: The Sounds of Science (1999) 2CDs



Tracklist:

CD1:

01. Beastie Boys (0:56)
02. Slow And Low (3:38)
03. Shake Your Rump (3:19)
04. Gratitude (2:45)
05. Skills To Pay The Bills (3:13)
06. Root Down (3:33)
07. Believe Me (1:19)
08. Sure Shot (3:20)
09. Body Movin' (Fatboy Slim Remix) (5:31)
10. Boomin' Granny (2:18)
11. Fight For Your Right (3:27)
12. Country Mike's Theme (0:36)
13. Pass The Mic (4:17)
14. Something's Got To Give (3:29)
15. Bodhisattva Vow (3:12)
16. Sabrosa (3:32)
17. Song For The Man (3:12)
18. Soba Violence (1:14)
19. Alive (3:49)
20. Jimmy James (Original Version) (3:06)
21. Three Mc's And One Dj (Live Video Version) (2:18)

CD2:

01. The Biz Vs. The Nuge (0:34)
02. Sabotage (3:00)
03. Shadrach (4:10)
04. Brass Monkey (2:38)
05. Time For Livin' (1:49)
06. Dub The Mic (3:01)
07. Benny And The Jets (4:07)
08. The Negotiation Limerick File (2:52)
09. I Want Some (2:00)
10. She's On It (4:18)
11. Son Of Neckbone (3:20)
12. Get It Together (4:06)
13. Twenty Questions (2:28)
14. Remote Control (3:00)
15. Railroad Blues (2:38)
16. Live Wire (3:06)
17. So What'cha Want (3:37)
18. Netty's Girl (3:00)
19. Egg Raid On Mojo (1:20)
20. Hey Ladies (3:49)
21. Intergalactic (3:30)


Exact Audio Copy V1.0 beta 1 from 15. November 2010

EAC extraction logfile from 11. January 2015, 22:09

Beastie Boys / The Sounds Of Science (Beastie Boys Anthology) (Disc 1)

Used drive : TSSTcorpCDDVDW SH-224DB Adapter: 1 ID: 0

Read mode : Secure
Utilize accurate stream : Yes
Defeat audio cache : Yes
Make use of C2 pointers : No

Read offset correction : 6
Overread into Lead-In and Lead-Out : No
Fill up missing offset samples with silence : Yes
Delete leading and trailing silent blocks : No
Null samples used in CRC calculations : Yes
Used interface : Native Win32 interface for Win NT & 2000
Gap handling : Appended to previous track

Used output format : User Defined Encoder
Selected bitrate : 896 kBit/s
Quality : High
Add ID3 tag : No
Command line compressor : C:\Program Files\Exact Audio Copy\Flac\flac.exe
Additional command line options : -6 -V -T "ARTIST=%a" -T "TITLE=%t" -T "ALBUM=%g" -T "DATE=%y" -T "TRACKNUMBER=%n" -T "GENRE=%m" -T "COMMENT=%e" %s -o %d


TOC of the extracted CD

Track | Start | Length | Start sector | End sector
––––––––––––––––––––––––––––-
1 | 0:00.00 | 0:56.30 | 0 | 4229
2 | 0:56.30 | 3:38.00 | 4230 | 20579
3 | 4:34.30 | 3:19.02 | 20580 | 35506
4 | 7:53.32 | 2:45.28 | 35507 | 47909
5 | 10:38.60 | 3:13.37 | 47910 | 62421
6 | 13:52.22 | 3:32.50 | 62422 | 78371
7 | 17:24.72 | 1:19.20 | 78372 | 84316
8 | 18:44.17 | 3:20.13 | 84317 | 99329
9 | 22:04.30 | 5:31.27 | 99330 | 124181
10 | 27:35.57 | 2:18.13 | 124182 | 134544
11 | 29:53.70 | 3:27.35 | 134545 | 150104
12 | 33:21.30 | 0:35.42 | 150105 | 152771
13 | 33:56.72 | 4:17.35 | 152772 | 172081
14 | 38:14.32 | 3:28.60 | 172082 | 187741
15 | 41:43.17 | 3:12.20 | 187742 | 202161
16 | 44:55.37 | 3:31.43 | 202162 | 218029
17 | 48:27.05 | 3:11.47 | 218030 | 232401
18 | 51:38.52 | 1:13.73 | 232402 | 237949
19 | 52:52.50 | 3:48.65 | 237950 | 255114
20 | 56:41.40 | 3:05.40 | 255115 | 269029
21 | 59:47.05 | 2:18.17 | 269030 | 279396


Track 1

Filename C:\New Folder\01 - Beastie Boys.wav

Pre-gap length 0:00:02.00

Peak level 100.0 %
Extraction speed 1.2 X
Track quality 100.0 %
Test CRC 3ED10532
Copy CRC 3ED10532
Accurately ripped (confidence 40) [DECE6B32]
Copy OK

Track 2

Filename C:\New Folder\02 - Slow And Low.wav

Peak level 100.0 %
Extraction speed 2.0 X
Track quality 100.0 %
Test CRC 217F9F20
Copy CRC 217F9F20
Accurately ripped (confidence 40) [78AD18D9]
Copy OK

Track 3

Filename C:\New Folder\03 - Shake Your Rump.wav

Peak level 100.0 %
Extraction speed 2.1 X
Track quality 100.0 %
Test CRC 16331EA0
Copy CRC 16331EA0
Accurately ripped (confidence 40) [862E018F]
Copy OK

Track 4

Filename C:\New Folder\04 - Gratitude.wav

Peak level 100.0 %
Extraction speed 1.7 X
Track quality 99.9 %
Test CRC 90D4F9E8
Copy CRC 90D4F9E8
Accurately ripped (confidence 40) [93FA4584]
Copy OK

Track 5

Filename C:\New Folder\05 - Skills To Pay The Bills.wav

Peak level 94.6 %
Extraction speed 2.3 X
Track quality 100.0 %
Test CRC 23800531
Copy CRC 23800531
Accurately ripped (confidence 39) [DD0FB89C]
Copy OK

Track 6

Filename C:\New Folder\06 - Root Down.wav

Peak level 95.0 %
Extraction speed 2.5 X
Track quality 100.0 %
Test CRC A16677E2
Copy CRC A16677E2
Accurately ripped (confidence 39) [D06DDEC1]
Copy OK

Track 7

Filename C:\New Folder\07 - Believe Me.wav

Pre-gap length 0:00:01.22

Peak level 81.6 %
Extraction speed 2.0 X
Track quality 100.0 %
Test CRC 75DE61C4
Copy CRC 75DE61C4
Accurately ripped (confidence 39) [6BF34D03]
Copy OK

Track 8

Filename C:\New Folder\08 - Sure Shot.wav

Peak level 95.0 %
Extraction speed 2.7 X
Track quality 100.0 %
Test CRC 6A8E5621
Copy CRC 6A8E5621
Accurately ripped (confidence 40) [E2987916]
Copy OK

Track 9

Filename C:\New Folder\09 - Body Movin' (Fatboy Slim Remix).wav

Pre-gap length 0:00:01.45

Peak level 75.6 %
Extraction speed 3.0 X
Track quality 100.0 %
Test CRC EEE08626
Copy CRC EEE08626
Accurately ripped (confidence 39) [CD540614]
Copy OK

Track 10

Filename C:\New Folder\10 - Boomin' Granny.wav

Peak level 100.0 %
Extraction speed 2.7 X
Track quality 100.0 %
Test CRC 06B79873
Copy CRC 06B79873
Accurately ripped (confidence 39) [B91D3A2C]
Copy OK

Track 11

Filename C:\New Folder\11 - Fight For Your Right.wav

Peak level 100.0 %
Extraction speed 3.0 X
Track quality 100.0 %
Test CRC 77DD269F
Copy CRC 77DD269F
Accurately ripped (confidence 39) [368E3B4F]
Copy OK

Track 12

Filename C:\New Folder\12 - Country Mike's Theme.wav

Peak level 89.0 %
Extraction speed 1.7 X
Track quality 100.0 %
Test CRC 0D61E422
Copy CRC 0D61E422
Accurately ripped (confidence 39) [1E20556C]
Copy OK

Track 13

Filename C:\New Folder\13 - Pass The Mic.wav

Peak level 100.0 %
Extraction speed 3.3 X
Track quality 100.0 %
Test CRC 7D13B560
Copy CRC 7D13B560
Accurately ripped (confidence 39) [4C5BB438]
Copy OK

Track 14

Filename C:\New Folder\14 - Something's Got To Give.wav

Pre-gap length 0:00:01.70

Peak level 99.1 %
Extraction speed 3.3 X
Track quality 100.0 %
Test CRC E9CC1C0C
Copy CRC E9CC1C0C
Accurately ripped (confidence 39) [9A735257]
Copy OK

Track 15

Filename C:\New Folder\15 - Bodhisattva Vow.wav

Peak level 95.0 %
Extraction speed 2.5 X
Track quality 99.9 %
Test CRC 6951CAFD
Copy CRC 6951CAFD
Accurately ripped (confidence 39) [2AA34ACA]
Copy OK

Track 16

Filename C:\New Folder\16 - Sabrosa.wav

Peak level 95.0 %
Extraction speed 3.5 X
Track quality 100.0 %
Test CRC 907DFDC5
Copy CRC 907DFDC5
Accurately ripped (confidence 39) [F3758F94]
Copy OK

Track 17

Filename C:\New Folder\17 - Song For The Man.wav

Pre-gap length 0:00:01.70

Peak level 100.0 %
Extraction speed 3.5 X
Track quality 100.0 %
Test CRC 83ADE846
Copy CRC 83ADE846
Accurately ripped (confidence 39) [9D741231]
Copy OK

Track 18

Filename C:\New Folder\18 - Soba Violence.wav

Peak level 79.4 %
Extraction speed 2.8 X
Track quality 100.0 %
Test CRC 971EC511
Copy CRC 971EC511
Accurately ripped (confidence 39) [EF690071]
Copy OK

Track 19

Filename C:\New Folder\19 - Alive.wav

Peak level 100.0 %
Extraction speed 3.7 X
Track quality 100.0 %
Test CRC FF1D3A2F
Copy CRC FF1D3A2F
Accurately ripped (confidence 38) [FB24C7A0]
Copy OK

Track 20

Filename C:\New Folder\20 - Jimmy James (Original Version).wav

Peak level 100.0 %
Extraction speed 3.7 X
Track quality 100.0 %
Test CRC 36908375
Copy CRC 36908375
Accurately ripped (confidence 39) [DF2672AF]
Copy OK

Track 21

Filename C:\New Folder\21 - Three MC's And One DJ (Live Video Version).wav

Pre-gap length 0:00:01.15

Peak level 100.0 %
Extraction speed 3.5 X
Track quality 100.0 %
Test CRC DFA2B4AC
Copy CRC DFA2B4AC
Accurately ripped (confidence 39) [6301833E]
Copy OK


All tracks accurately ripped

No errors occurred

End of status report

==== Log checksum 98C72E3427CC0C2DAA76D1CF58FD0A43C585E1B38464D923E84967692EDDA787 ====

[CUETools log; Date: 31.01.2018 17:23:31; Version: 2.1.4]
[CTDB TOCID: Yf258A7.b0yOGROprmDR5vrFLyY-] found.
Track | CTDB Status
1 | (698/732) Accurately ripped
2 | (695/732) Accurately ripped
3 | (699/732) Accurately ripped
4 | (702/732) Accurately ripped
5 | (689/732) Accurately ripped, or (2/732) differs in 18 samples @01:18:74-01:19:00
6 | (700/732) Accurately ripped
7 | (702/732) Accurately ripped
8 | (699/732) Accurately ripped
9 | (698/732) Accurately ripped
10 | (703/732) Accurately ripped
11 | (700/732) Accurately ripped
12 | (701/732) Accurately ripped
13 | (700/732) Accurately ripped
14 | (697/732) Accurately ripped
15 | (693/732) Accurately ripped
16 | (699/732) Accurately ripped
17 | (693/732) Accurately ripped
18 | (693/732) Accurately ripped
19 | (686/732) Accurately ripped
20 | (696/732) Accurately ripped
21 | (695/732) Accurately ripped, or (2/732) differs in 126 samples @02:00:53-02:00:54,02:01:18-02:01:19
[AccurateRip ID: 002e82f6-02d08c66-250e8d15] found.
Track [ CRC | V2 ] Status
01 [dece6b32|05c57789] (066+051/742) Accurately ripped
02 [78ad18d9|581849cf] (065+051/742) Accurately ripped
03 [862e018f|82d4bad8] (064+051/744) Accurately ripped
04 [93fa4584|73b1b4b3] (065+051/742) Accurately ripped
05 [dd0fb89c|86721219] (064+050/721) Accurately ripped
06 [d06ddec1|f8620e01] (063+051/739) Accurately ripped
07 [6bf34d03|2e5c2cb8] (065+050/743) Accurately ripped
08 [e2987916|c0c10303] (064+052/745) Accurately ripped
09 [cd540614|9ffcf146] (066+050/741) Accurately ripped
10 [b91d3a2c|4e4df5f6] (065+050/743) Accurately ripped
11 [368e3b4f|e5b31c18] (065+051/744) Accurately ripped
12 [1e20556c|3f607cde] (065+050/745) Accurately ripped
13 [4c5bb438|54654b29] (065+051/740) Accurately ripped
14 [9a735257|ad15c180] (064+050/728) Accurately ripped
15 [2aa34aca|ef74085c] (063+050/736) Accurately ripped
16 [f3758f94|b69d5663] (063+050/730) Accurately ripped
17 [9d741231|b33c7346] (065+050/730) Accurately ripped
18 [ef690071|3d2d30c8] (064+050/729) Accurately ripped
19 [fb24c7a0|bc1df667] (065+050/718) Accurately ripped
20 [df2672af|7ac1a9d3] (064+049/719) Accurately ripped
21 [6301833e|9f15c578] (066+050/712) Accurately ripped
Offsetted by 63:
01 [9a19b852] (017/742) Accurately ripped
02 [5e1e1429] (017/742) Accurately ripped
03 [da66a484] (017/744) Accurately ripped
04 [0fb0c439] (017/742) Accurately ripped
05 [9fb3634e] (018/721) Accurately ripped
06 [96be1a69] (017/739) Accurately ripped
07 [97cb5c9e] (017/743) Accurately ripped
08 [136de758] (018/745) Accurately ripped
09 [ac3efb34] (017/741) Accurately ripped
10 [ec6fa27d] (017/743) Accurately ripped
11 [de8cbd2f] (017/744) Accurately ripped
12 [e6bec4a3] (018/745) Accurately ripped
13 [fb0430b4] (017/740) Accurately ripped
14 [c113c6b7] (017/728) Accurately ripped
15 [728f3f8b] (017/736) Accurately ripped
16 [dd11e832] (017/730) Accurately ripped
17 [73973058] (017/730) Accurately ripped
18 [ef41a080] (016/729) Accurately ripped
19 [8724cbf1] (015/718) Accurately ripped
20 [498c9776] (015/719) Accurately ripped
21 [90158d18] (015/712) Accurately ripped
Offsetted by 124:
01 [84462fb2] (102/742) Accurately ripped
02 [23d96aab] (102/742) Accurately ripped
03 [65e09581] (102/744) Accurately ripped
04 [9f433302] (102/742) Accurately ripped
05 [266a8eb2] (083/721) Accurately ripped
06 [d0be4469] (101/739) Accurately ripped
07 [69736138] (103/743) Accurately ripped
08 [c45cd6a5] (103/745) Accurately ripped
09 [6a88c33c] (103/741) Accurately ripped
10 [a3132e21] (103/743) Accurately ripped
11 [b34d4938] (104/744) Accurately ripped
12 [04e6d372] (104/745) Accurately ripped
13 [46ab6428] (104/740) Accurately ripped
14 [f6bb53d7] (102/728) Accurately ripped
15 [66ed9e4e] (104/736) Accurately ripped
16 [f417010c] (103/730) Accurately ripped
17 [2a8c7e4d] (103/730) Accurately ripped
18 [c6e03dda] (100/729) Accurately ripped
19 [701012c7] (101/718) Accurately ripped
20 [b4a2494b] (103/719) Accurately ripped
21 [2561d7a6] (101/712) Accurately ripped
Offsetted by 727:
01 [ce16ed52] (196/742) Accurately ripped
02 [717278fa] (195/742) Accurately ripped
03 [48d2f3e3] (196/744) Accurately ripped
04 [923cd682] (194/742) Accurately ripped
05 [c8275e12] (194/721) Accurately ripped
06 [adfd503c] (196/739) Accurately ripped
07 [4ae2d364] (197/743) Accurately ripped
08 [4af1726a] (195/745) Accurately ripped
09 [836aac30] (194/741) Accurately ripped
10 [fa8f4528] (196/743) Accurately ripped
11 [7573376f] (197/744) Accurately ripped
12 [a4f118a0] (195/745) Accurately ripped
13 [60aee714] (195/740) Accurately ripped
14 [43dfadb7] (190/728) Accurately ripped
15 [ce2dc4f3] (193/736) Accurately ripped
16 [f9389a62] (191/730) Accurately ripped
17 [e3013130] (189/730) Accurately ripped
18 [782bdf8e] (191/729) Accurately ripped
19 [c259f373] (184/718) Accurately ripped
20 [65e1a94e] (186/719) Accurately ripped
21 [6721a3a8] (181/712) Accurately ripped
Offsetted by -1880:
01 [01958e32] (000/742) No match (V2 was not tested)
02 [0024fb66] (000/742) No match (V2 was not tested)
03 [3d6cd33a] (000/744) No match (V2 was not tested)
04 [f39ae34f] (000/742) No match (V2 was not tested)
05 [af14c45e] (000/721) No match (V2 was not tested)
06 [c9d270fc] (000/739) No match (V2 was not tested)
07 [eb1a7a12] (000/743) No match (V2 was not tested)
08 [4f640df3] (000/745) No match (V2 was not tested)
09 [39a94038] (000/741) No match (V2 was not tested)
10 [73e7b975] (000/743) No match (V2 was not tested)
11 [7df7fc87] (000/744) No match (V2 was not tested)
12 [6a9d391f] (000/745) No match (V2 was not tested)
13 [c3a38ad8] (000/740) No match
14 [c8823357] (000/728) No match (V2 was not tested)
15 [5ec08a22] (000/736) No match (V2 was not tested)
16 [b0176be4] (000/730) No match (V2 was not tested)
17 [213b9a99] (000/730) No match (V2 was not tested)
18 [03377c18] (000/729) No match (V2 was not tested)
19 [64794059] (000/718) No match (V2 was not tested)
20 [63c06217] (000/719) No match
21 [118f182e] (000/712) No match (V2 was not tested)
Offsetted by -727:
01 [ef85e912] (000/742) No match (V2 was not tested)
02 [18fff3d1] (000/742) No match (V2 was not tested)
03 [cad555ea] (000/744) No match (V2 was not tested)
04 [a4b6a806] (000/742) No match (V2 was not tested)
05 [06486af4] (000/721) No match (V2 was not tested)
06 [e8a9f0ec] (000/739) No match (V2 was not tested)
07 [419479a8] (000/743) No match (V2 was not tested)
08 [75a23470] (000/745) No match (V2 was not tested)
09 [28a7287c] (000/741) No match (V2 was not tested)
10 [83102f81] (000/743) No match (V2 was not tested)
11 [781f850f] (000/744) No match (V2 was not tested)
12 [7a8c8393] (000/745) No match (V2 was not tested)
13 [3808815c] (000/740) No match (V2 was not tested)
14 [f106f6f7] (000/728) No match (V2 was not tested)
15 [8718d0a1] (000/736) No match (V2 was not tested)
16 [edb284c6] (000/730) No match (V2 was not tested)
17 [57e6f332] (000/730) No match (V2 was not tested)
18 [e954ab29] (000/729) No match (V2 was not tested)
19 [017bbda8] (000/718) No match (V2 was not tested)
20 [586b3c10] (000/719) No match (V2 was not tested)
21 [5ee162d4] (000/712) No match (V2 was not tested)
Offsetted by -583:
01 [c0320712] (000/742) No match (V2 was not tested)
02 [91fa4f6c] (000/742) No match (V2 was not tested)
03 [3f268f87] (000/744) No match (V2 was not tested)
04 [8134c98a] (000/742) No match (V2 was not tested)
05 [db79ee10] (000/721) No match (V2 was not tested)
06 [682b64a8] (000/739) No match (V2 was not tested)
07 [0413fdc0] (000/743) No match (V2 was not tested)
08 [4b129188] (000/745) No match (V2 was not tested)
09 [6cf3d187] (000/741) No match (V2 was not tested)
10 [67662d0c] (000/743) No match (V2 was not tested)
11 [78538084] (000/744) No match (V2 was not tested)
12 [4201b414] (000/745) No match (V2 was not tested)
13 [10650b9c] (000/740) No match (V2 was not tested)
14 [b70800f7] (000/728) No match (V2 was not tested)
15 [06eb0011] (000/736) No match (V2 was not tested)
16 [283c73e6] (000/730) No match (V2 was not tested)
17 [1cc98142] (000/730) No match (V2 was not tested)
18 [6584f6b5] (000/729) No match (V2 was not tested)
19 [e29a5f6c] (000/718) No match (V2 was not tested)
20 [270b9020] (000/719) No match (V2 was not tested)
21 [0f0f3034] (000/712) No match (V2 was not tested)
Offsetted by 58:
01 [8f4ca1f2] (000/742) No match (V2 was not tested)
02 [cf46d781] (000/742) No match (V2 was not tested)
03 [fde96455] (000/744) No match (V2 was not tested)
04 [24497dd9] (000/742) No match (V2 was not tested)
05 [20b4f724] (000/721) No match (V2 was not tested)
06 [b7ce775a] (000/739) No match (V2 was not tested)
07 [e904efc3] (000/743) No match (V2 was not tested)
08 [54a2ade8] (000/745) No match (V2 was not tested)
09 [5a168637] (000/741) No match (V2 was not tested)
10 [cdb5caed] (000/743) No match (V2 was not tested)
11 [36d10fc7] (000/744) No match (V2 was not tested)
12 [7e55cdec] (000/745) No match (V2 was not tested)
13 [8380fa20] (000/740) No match (V2 was not tested)
14 [e6a58497] (000/728) No match (V2 was not tested)
15 [a1ad4890] (000/736) No match (V2 was not tested)
16 [ce97c8c8] (000/730) No match (V2 was not tested)
17 [25a4a7db] (000/730) No match (V2 was not tested)
18 [fb7582fa] (000/729) No match (V2 was not tested)
19 [6fd79757] (000/718) No match (V2 was not tested)
20 [cb437819] (000/719) No match (V2 was not tested)
21 [94a22eda] (000/712) No match (V2 was not tested)
Offsetted by 118:
01 [10e9ae72] (000/742) No match (V2 was not tested)
02 [1ae041d0] (000/742) No match (V2 was not tested)
03 [2ec72052] (000/744) No match (V2 was not tested)
04 [2a453689] (000/742) No match (V2 was not tested)
05 [c75664a4] (000/721) No match (V2 was not tested)
06 [2b851aae] (000/739) No match (V2 was not tested)
07 [65a74e35] (000/743) No match (V2 was not tested)
08 [45ed5ed6] (002/745) Accurately ripped
09 [3b1f0241] (000/741) No match (V2 was not tested)
10 [4c54fae8] (000/743) No match (V2 was not tested)
11 [3a07c2a3] (000/744) No match (V2 was not tested)
12 [58bf49d3] (000/745) No match (V2 was not tested)
13 [1da78910] (000/740) No match (V2 was not tested)
14 [23d09e17] (000/728) No match (V2 was not tested)
15 [6c44dc54] (000/736) No match (V2 was not tested)
16 [7c5141c0] (000/730) No match (V2 was not tested)
17 [cd030db7] (000/730) No match (V2 was not tested)
18 [a24bb2a1] (000/729) No match (V2 was not tested)
19 [87530840] (000/718) No match (V2 was not tested)
20 [b6b0f075] (000/719) No match (V2 was not tested)
21 [5e0a99c2] (000/712) No match (V2 was not tested)

Track Peak [ CRC32 ] [W/O NULL] [ LOG ]
– 99,9 [8478052D] [48014837]
01 99,9 [3ED10532] [B8A6EABA] CRC32
02 99,9 [217F9F20] [989DBFFB] CRC32
03 99,9 [16331EA0] [DDCA7AED] CRC32
04 99,9 [90D4F9E8] [D5487DCE] CRC32
05 94,6 [23800531] [7921692E] CRC32
06 95,0 [A16677E2] [9FD490C6] CRC32
07 81,6 [75DE61C4] [633CEF5B] CRC32
08 95,0 [6A8E5621] [7E0C9C78] CRC32
09 75,6 [EEE08626] [13696975] CRC32
10 99,9 [06B79873] [7F84D41A] CRC32
11 99,9 [77DD269F] [01AD57FC] CRC32
12 89,0 [0D61E422] [34793528] CRC32
13 99,9 [7D13B560] [0A6F0807] CRC32
14 99,1 [E9CC1C0C] [89731DA7] CRC32
15 95,0 [6951CAFD] [241347E5] CRC32
16 95,0 [907DFDC5] [B00D5F6F] CRC32
17 99,9 [83ADE846] [15804935] CRC32
18 79,4 [971EC511] [3E220D40] CRC32
19 99,9 [FF1D3A2F] [9ADFF30F] CRC32
20 99,9 [36908375] [90218EF1] CRC32
21 99,9 [DFA2B4AC] [2BFD1534] CRC32

foobar2000 1.2 / Dynamic Range Meter 1.1.1
log date: 2018-01-31 17:19:02

––––––––––––––––––––––––––––––––––––––––
Analyzed: Beastie Boys / The Sounds Of Science (Beastie Boys Anthology) (Disc 1)
––––––––––––––––––––––––––––––––––––––––

DR Peak RMS Duration Track
––––––––––––––––––––––––––––––––––––––––
DR9 0.00 dB -10.09 dB 0:56 01-Beastie Boys
DR11 0.00 dB -12.21 dB 3:38 02-Slow And Low
DR8 0.00 dB -11.16 dB 3:19 03-Shake Your Rump
DR7 0.00 dB -8.80 dB 2:45 04-Gratitude
DR10 -0.48 dB -11.96 dB 3:13 05-Skills To Pay The Bills
DR8 -0.44 dB -10.00 dB 3:33 06-Root Down
DR8 -1.76 dB -11.61 dB 1:19 07-Believe Me
DR9 -0.44 dB -10.97 dB 3:20 08-Sure Shot
DR7 -2.43 dB -11.81 dB 5:31 09-Body Movin' (Fatboy Slim Remix)
DR11 0.00 dB -13.63 dB 2:18 10-Boomin' Granny
DR9 0.00 dB -10.82 dB 3:27 11-Fight For Your Right
DR10 -1.01 dB -12.87 dB 0:36 12-Country Mike's Theme
DR7 0.00 dB -8.23 dB 4:17 13-Pass The Mic
DR11 -0.07 dB -12.62 dB 3:29 14-Something's Got To Give
DR9 -0.44 dB -12.17 dB 3:12 15-Bodhisattva Vow
DR9 -0.44 dB -13.42 dB 3:32 16-Sabrosa
DR9 0.00 dB -10.56 dB 3:12 17-Song For The Man
DR7 -2.00 dB -10.08 dB 1:14 18-Soba Violence
DR9 0.00 dB -10.41 dB 3:49 19-Alive
DR9 0.00 dB -10.72 dB 3:06 20-Jimmy James (Original Version)
DR10 0.00 dB -11.56 dB 2:18 21-Three Mc's And One Dj (Live Video Version)
––––––––––––––––––––––––––––––––––––––––

Number of tracks: 21
Official DR value: DR9

Samplerate: 44100 Hz
Channels: 2
Bits per sample: 16
Bitrate: 900 kbps
Codec: FLAC
================================================================================


Exact Audio Copy V1.0 beta 1 from 15. November 2010

EAC extraction logfile from 3. January 2015, 9:35

Beastie Boys / The Sounds Of Science (Beastie Boys Anthology) (Disc 2)

Used drive : TSSTcorpCDDVDW SH-224DB Adapter: 1 ID: 0

Read mode : Secure
Utilize accurate stream : Yes
Defeat audio cache : Yes
Make use of C2 pointers : No

Read offset correction : 6
Overread into Lead-In and Lead-Out : No
Fill up missing offset samples with silence : Yes
Delete leading and trailing silent blocks : No
Null samples used in CRC calculations : Yes
Used interface : Native Win32 interface for Win NT & 2000
Gap handling : Appended to previous track

Used output format : User Defined Encoder
Selected bitrate : 896 kBit/s
Quality : High
Add ID3 tag : No
Command line compressor : C:\Program Files\Exact Audio Copy\Flac\flac.exe
Additional command line options : -6 -V -T "ARTIST=%a" -T "TITLE=%t" -T "ALBUM=%g" -T "DATE=%y" -T "TRACKNUMBER=%n" -T "GENRE=%m" -T "COMMENT=%e" %s -o %d


TOC of the extracted CD

Track | Start | Length | Start sector | End sector
––––––––––––––––––––––––––––-
1 | 0:00.00 | 0:33.67 | 0 | 2541
2 | 0:33.67 | 2:59.50 | 2542 | 16016
3 | 3:33.42 | 4:09.73 | 16017 | 34764
4 | 7:43.40 | 2:37.65 | 34765 | 46604
5 | 10:21.30 | 1:48.57 | 46605 | 54761
6 | 12:10.12 | 3:01.25 | 54762 | 68361
7 | 15:11.37 | 4:06.68 | 68362 | 86879
8 | 19:18.30 | 2:52.07 | 86880 | 99786
9 | 22:10.37 | 2:00.20 | 99787 | 108806
10 | 24:10.57 | 4:18.30 | 108807 | 128186
11 | 28:29.12 | 3:19.50 | 128187 | 143161
12 | 31:48.62 | 4:06.13 | 143162 | 161624
13 | 35:55.00 | 2:28.12 | 161625 | 172736
14 | 38:23.12 | 2:59.38 | 172737 | 186199
15 | 41:22.50 | 2:38.07 | 186200 | 198056
16 | 44:00.57 | 3:06.23 | 198057 | 212029
17 | 47:07.05 | 3:37.05 | 212030 | 228309
18 | 50:44.10 | 3:00.07 | 228310 | 241816
19 | 53:44.17 | 1:20.33 | 241817 | 247849
20 | 55:04.50 | 3:48.57 | 247850 | 265006
21 | 58:53.32 | 3:30.35 | 265007 | 280791


Track 1

Filename C:\New Folder\01 - The Biz Vs. The Nuge.wav

Pre-gap length 0:00:02.00

Peak level 90.9 %
Extraction speed 0.6 X
Track quality 99.6 %
Test CRC 86C6FDD6
Copy CRC 86C6FDD6
Accurately ripped (confidence 39) [1F49B74F]
Copy OK

Track 2

Filename C:\New Folder\02 - Sabotage.wav

Peak level 95.0 %
Extraction speed 1.6 X
Track quality 99.9 %
Test CRC 9328177D
Copy CRC 9328177D
Accurately ripped (confidence 40) [D6F28272]
Copy OK

Track 3

Filename C:\New Folder\03 - Shadrach.wav

Pre-gap length 0:00:01.12

Peak level 100.0 %
Extraction speed 2.1 X
Track quality 100.0 %
Test CRC D328805A
Copy CRC D328805A
Accurately ripped (confidence 40) [E34C2BF3]
Copy OK

Track 4

Filename C:\New Folder\04 - Brass Monkey.wav

Pre-gap length 0:00:01.70

Peak level 100.0 %
Extraction speed 2.1 X
Track quality 100.0 %
Test CRC F091E963
Copy CRC F091E963
Accurately ripped (confidence 39) [3F6A9264]
Copy OK

Track 5

Filename C:\New Folder\05 - Time For Livin'.wav

Peak level 100.0 %
Extraction speed 2.0 X
Track quality 100.0 %
Test CRC 17E33C8C
Copy CRC 17E33C8C
Accurately ripped (confidence 39) [2408B420]
Copy OK

Track 6

Filename C:\New Folder\06 - Dub The Mic.wav

Peak level 100.0 %
Extraction speed 2.4 X
Track quality 100.0 %
Test CRC 0088BE32
Copy CRC 0088BE32
Accurately ripped (confidence 39) [E6B2AB82]
Copy OK

Track 7

Filename C:\New Folder\07 - Benny And The Jets.wav

Pre-gap length 0:00:01.17

Peak level 100.0 %
Extraction speed 2.6 X
Track quality 100.0 %
Test CRC 9394453D
Copy CRC 9394453D
Accurately ripped (confidence 39) [4F0ABAD9]
Copy OK

Track 8

Filename C:\New Folder\08 - The Negotiation Limerick File.wav

Peak level 93.3 %
Extraction speed 2.6 X
Track quality 100.0 %
Test CRC 410F423F
Copy CRC 410F423F
Accurately ripped (confidence 39) [E42D4301]
Copy OK

Track 9

Filename C:\New Folder\09 - I Want Some.wav

Peak level 100.0 %
Extraction speed 2.4 X
Track quality 100.0 %
Test CRC 814272A0
Copy CRC 814272A0
Accurately ripped (confidence 39) [30D06AAA]
Copy OK

Track 10

Filename C:\New Folder\10 - She's On It.wav

Peak level 100.0 %
Extraction speed 2.9 X
Track quality 100.0 %
Test CRC DD77834A
Copy CRC DD77834A
Accurately ripped (confidence 38) [874E38A1]
Copy OK

Track 11

Filename C:\New Folder\11 - Son Of Neckbone.wav

Peak level 97.7 %
Extraction speed 2.9 X
Track quality 100.0 %
Test CRC D0792F2F
Copy CRC D0792F2F
Accurately ripped (confidence 39) [44FCA42A]
Copy OK

Track 12

Filename C:\New Folder\12 - Get It Together.wav

Peak level 95.0 %
Extraction speed 3.1 X
Track quality 100.0 %
Test CRC FE79F294
Copy CRC FE79F294
Accurately ripped (confidence 40) [DBD3B06E]
Copy OK

Track 13

Filename C:\New Folder\13 - Twenty Questions.wav

Peak level 94.4 %
Extraction speed 2.9 X
Track quality 100.0 %
Test CRC 5E30FB2E
Copy CRC 5E30FB2E
Accurately ripped (confidence 39) [E44AC20C]
Copy OK

Track 14

Filename C:\New Folder\14 - Remote Control.wav

Peak level 100.0 %
Extraction speed 3.2 X
Track quality 100.0 %
Test CRC BFDAA305
Copy CRC BFDAA305
Accurately ripped (confidence 38) [B8C7740F]
Copy OK

Track 15

Filename C:\New Folder\15 - Railroad Blues.wav

Peak level 79.3 %
Extraction speed 3.1 X
Track quality 100.0 %
Test CRC 3004472B
Copy CRC 3004472B
Accurately ripped (confidence 38) [D349D1D7]
Copy OK

Track 16

Filename C:\New Folder\16 - Live Wire.wav

Peak level 89.1 %
Extraction speed 2.5 X
Track quality 99.9 %
Test CRC A4E1E309
Copy CRC A4E1E309
Accurately ripped (confidence 38) [187B4E93]
Copy OK

Track 17

Filename C:\New Folder\17 - So What'cha Want.wav

Peak level 100.0 %
Extraction speed 3.5 X
Track quality 100.0 %
Test CRC 770B32B4
Copy CRC 770B32B4
Accurately ripped (confidence 39) [32396255]
Copy OK

Track 18

Filename C:\New Folder\18 - Netty's Girl.wav

Peak level 59.8 %
Extraction speed 3.5 X
Track quality 100.0 %
Test CRC 6CE9A3A5
Copy CRC 6CE9A3A5
Accurately ripped (confidence 38) [A7611DF7]
Copy OK

Track 19

Filename C:\New Folder\19 - Egg Raid On Mojo.wav

Peak level 89.0 %
Extraction speed 2.9 X
Track quality 100.0 %
Test CRC 2DD9B969
Copy CRC 2DD9B969
Accurately ripped (confidence 37) [8C98384F]
Copy OK

Track 20

Filename C:\New Folder\20 - Hey Ladies.wav

Peak level 100.0 %
Extraction speed 3.7 X
Track quality 100.0 %
Test CRC 7138973E
Copy CRC 7138973E
Accurately ripped (confidence 37) [4ACCB84A]
Copy OK

Track 21

Filename C:\New Folder\21 - Intergalactic.wav

Pre-gap length 0:00:01.17

Peak level 98.8 %
Extraction speed 3.7 X
Track quality 100.0 %
Test CRC CB733A2C
Copy CRC CB733A2C
Accurately ripped (confidence 35) [C8A36C15]
Copy OK


All tracks accurately ripped

No errors occurred

End of status report

==== Log checksum 5AEB5488A3211AE99568AAF689891C482FED969C61EA97E963C8B968E3F9DEE9 ====

[CUETools log; Date: 31.01.2018 17:25:17; Version: 2.1.4]
[CTDB TOCID: 7JOi4jMVOsRRkyrty9GZT60x2EI-] found.
Track | CTDB Status
1 | (633/669) Accurately ripped
2 | (633/669) Accurately ripped
3 | (632/669) Accurately ripped
4 | (638/669) Accurately ripped
5 | (634/669) Accurately ripped
6 | (633/669) Accurately ripped
7 | (633/669) Accurately ripped
8 | (631/669) Accurately ripped
9 | (635/669) Accurately ripped
10 | (632/669) Accurately ripped
11 | (631/669) Accurately ripped
12 | (366/669) Accurately ripped, or (230/669) differs in 81335 samples @03:54:42-03:55:36
13 | (635/669) Accurately ripped
14 | (632/669) Accurately ripped
15 | (628/669) Accurately ripped
16 | (630/669) Accurately ripped
17 | (625/669) Accurately ripped
18 | (624/669) Accurately ripped
19 | (628/669) Accurately ripped
20 | (624/669) Accurately ripped
21 | (388/669) Accurately ripped, or (211/669) differs in 1470 samples @03:06:33-03:06:34
[AccurateRip ID: 002d896d-02c601f4-fb0e9f15] found.
Track [ CRC | V2 ] Status
01 [1f49b74f|dda0e1fc] (066+052/674) Accurately ripped
02 [d6f28272|d2c1190b] (065+053/678) Accurately ripped
03 [e34c2bf3|197b31b3] (063+053/673) Accurately ripped
04 [3f6a9264|21a8760d] (066+052/672) Accurately ripped
05 [2408b420|948613b4] (066+052/676) Accurately ripped
06 [e6b2ab82|294858dd] (065+052/672) Accurately ripped
07 [4f0abad9|592a1a82] (066+052/670) Accurately ripped
08 [e42d4301|2a7d5aae] (064+052/669) Accurately ripped
09 [30d06aaa|ef9c7e42] (065+052/671) Accurately ripped
10 [874e38a1|9264b8e3] (065+051/672) Accurately ripped
11 [44fca42a|58559c49] (064+052/664) Accurately ripped
12 [dbd3b06e|251fda6f] (066+052/669) Accurately ripped
13 [e44ac20c|86f760fd] (065+052/666) Accurately ripped
14 [b8c7740f|05606729] (064+051/663) Accurately ripped
15 [d349d1d7|7917d8e2] (065+051/661) Accurately ripped
16 [187b4e93|f01950a1] (065+050/657) Accurately ripped
17 [32396255|a8342c43] (065+052/661) Accurately ripped
18 [a7611df7|097cc408] (065+050/662) Accurately ripped
19 [8c98384f|b2cee9d3] (065+050/657) Accurately ripped
20 [4accb84a|f85cb387] (063+050/646) Accurately ripped
21 [c8a36c15|907b82d5] (062+048/635) Accurately ripped
Offsetted by -1500:
01 [b6a64219] (032/674) Accurately ripped
02 [e030e5b8] (033/678) Accurately ripped
03 [a060c7ab] (032/673) Accurately ripped
04 [609302f4] (032/672) Accurately ripped
05 [25e41c97] (032/676) Accurately ripped
06 [96e69583] (031/672) Accurately ripped
07 [806ff733] (031/670) Accurately ripped
08 [2d437ef1] (031/669) Accurately ripped
09 [d3caa634] (031/671) Accurately ripped
10 [f5c030f9] (031/672) Accurately ripped
11 [875906fb] (030/664) Accurately ripped
12 [e97a68c9] (000/669) No match (V2 was not tested)
13 [550dfb09] (028/666) Accurately ripped
14 [b6541386] (029/663) Accurately ripped
15 [73664b26] (029/661) Accurately ripped
16 [017102ae] (029/657) Accurately ripped
17 [61af2b8a] (029/661) Accurately ripped
18 [2e0119f6] (029/662) Accurately ripped
19 [82b86281] (028/657) Accurately ripped
20 [65141cb6] (028/646) Accurately ripped
21 [98e6621f] (027/635) Accurately ripped
Offsetted by -1407:
01 [da252a48] (000/674) No match (V2 was not tested)
02 [c65779d3] (000/678) No match (V2 was not tested)
03 [34e93af1] (000/673) No match (V2 was not tested)
04 [c4680e68] (000/672) No match (V2 was not tested)
05 [904fc4d6] (000/676) No match (V2 was not tested)
06 [deecd97d] (000/672) No match (V2 was not tested)
07 [44900bb9] (000/670) No match (V2 was not tested)
08 [99a27be3] (000/669) No match (V2 was not tested)
09 [9c36548c] (000/671) No match (V2 was not tested)
10 [456e5f87] (000/672) No match (V2 was not tested)
11 [cdb18c17] (000/664) No match (V2 was not tested)
12 [b89142e7] (000/669) No match (V2 was not tested)
13 [c4118a04] (000/666) No match (V2 was not tested)
14 [c3cd28dc] (000/663) No match (V2 was not tested)
15 [629a7491] (000/661) No match (V2 was not tested)
16 [3c52ec19] (000/657) No match (V2 was not tested)
17 [1fd573c5] (000/661) No match (V2 was not tested)
18 [6486891c] (000/662) No match (V2 was not tested)
19 [b6f7a5d1] (000/657) No match (V2 was not tested)
20 [ff9bf94d] (000/646) No match (V2 was not tested)
21 [dae6b824] (000/635) No match (V2 was not tested)
Offsetted by -727:
01 [64af8994] (000/674) No match (V2 was not tested)
02 [34a713ef] (000/678) No match (V2 was not tested)
03 [4c6bd5a1] (000/673) No match (V2 was not tested)
04 [daebe908] (000/672) No match (V2 was not tested)
05 [52aa022b] (000/676) No match (V2 was not tested)
06 [fdae5dcc] (000/672) No match (V2 was not tested)
07 [70741c16] (000/670) No match (V2 was not tested)
08 [9b14f92a] (000/669) No match (V2 was not tested)
09 [ec43f328] (000/671) No match (V2 was not tested)
10 [49f9da77] (000/672) No match (V2 was not tested)
11 [39473e62] (000/664) No match (V2 was not tested)
12 [e68814ac] (000/669) No match (V2 was not tested)
13 [79153b3c] (000/666) No match (V2 was not tested)
14 [b44d0d8c] (000/663) No match (V2 was not tested)
15 [93053927] (000/661) No match (V2 was not tested)
16 [4d494004] (000/657) No match (V2 was not tested)
17 [e5f32eab] (000/661) No match (V2 was not tested)
18 [dba9d291] (000/662) No match (V2 was not tested)
19 [950829ad] (000/657) No match (V2 was not tested)
20 [37f67d45] (000/646) No match (V2 was not tested)
21 [fb19ddbf] (000/635) No match (V2 was not tested)
Offsetted by -28:
01 [b91fec07] (000/674) No match (V2 was not tested)
02 [94864432] (000/678) No match (V2 was not tested)
03 [45b7bc2b] (000/673) No match (V2 was not tested)
04 [1bda99f4] (000/672) No match (V2 was not tested)
05 [6525dcca] (000/676) No match (V2 was not tested)
06 [c292b7b4] (000/672) No match (V2 was not tested)
07 [15d1c9c8] (000/670) No match (V2 was not tested)
08 [3dd37b0f] (000/669) No match (V2 was not tested)
09 [451a941d] (000/671) No match (V2 was not tested)
10 [d2699b79] (000/672) No match (V2 was not tested)
11 [95a361a8] (000/664) No match (V2 was not tested)
12 [17eeeb8c] (000/669) No match (V2 was not tested)
13 [a72270aa] (000/666) No match (V2 was not tested)
14 [ba996ee5] (000/663) No match (V2 was not tested)
15 [8e0a83e5] (000/661) No match (V2 was not tested)
16 [b5137666] (000/657) No match (V2 was not tested)
17 [657bf96d] (000/661) No match (V2 was not tested)
18 [e34f3952] (000/662) No match (V2 was not tested)
19 [df18102f] (000/657) No match (V2 was not tested)
20 [6698cdf6] (000/646) No match (V2 was not tested)
21 [f09cb73d] (000/635) No match (V2 was not tested)
Offsetted by 19:
01 [d24008f3] (074/674) Accurately ripped
02 [d58e8bc4] (075/678) Accurately ripped
03 [c51577cd] (073/673) Accurately ripped
04 [69d568b0] (074/672) Accurately ripped
05 [5a3e1135] (075/676) Accurately ripped
06 [1b3d4b9c] (074/672) Accurately ripped
07 [28e0bc22] (073/670) Accurately ripped
08 [e9592ef3] (075/669) Accurately ripped
09 [8fde98bf] (074/671) Accurately ripped
10 [0b327eb3] (073/672) Accurately ripped
11 [931ff9b2] (073/664) Accurately ripped
12 [c75227b8] (000/669) No match (V2 was not tested)
13 [2986198e] (073/666) Accurately ripped
14 [d8c808cc] (072/663) Accurately ripped
15 [b970db80] (074/661) Accurately ripped
16 [15814ec4] (075/657) Accurately ripped
17 [70807513] (076/661) Accurately ripped
18 [1a02a914] (076/662) Accurately ripped
19 [9e6a83af] (074/657) Accurately ripped
20 [41148503] (073/646) Accurately ripped
21 [645ed483] (072/635) Accurately ripped
Offsetted by 607:
01 [594bf9f0] (073/674) Accurately ripped
02 [b619eb27] (076/678) Accurately ripped
03 [b242a335] (077/673) Accurately ripped
04 [54a4c9e0] (076/672) Accurately ripped
05 [7dbd86d9] (075/676) Accurately ripped
06 [bfdc953c] (075/672) Accurately ripped
07 [783847cf] (075/670) Accurately ripped
08 [dff974a0] (075/669) Accurately ripped
09 [77538ec9] (074/671) Accurately ripped
10 [e1f362fb] (075/672) Accurately ripped
11 [4e9dc45b] (074/664) Accurately ripped
12 [c3e7b217] (000/669) No match (V2 was not tested)
13 [24a4c4f7] (076/666) Accurately ripped
14 [0ab634ff] (074/663) Accurately ripped
15 [09b3c52e] (075/661) Accurately ripped
16 [38fadc00] (075/657) Accurately ripped
17 [157882a3] (073/661) Accurately ripped
18 [11ce24db] (073/662) Accurately ripped
19 [f0af0ada] (073/657) Accurately ripped
20 [f956bde7] (072/646) Accurately ripped
21 [1cebaa3b] (074/635) Accurately ripped
Offsetted by 669:
01 [17a11efe] (000/674) No match (V2 was not tested)
02 [92103e5d] (000/678) No match (V2 was not tested)
03 [6a9d9ab9] (000/673) No match (V2 was not tested)
04 [ec8826d8] (000/672) No match (V2 was not tested)
05 [f187c6e8] (000/676) No match (V2 was not tested)
06 [a75a17cf] (000/672) No match (V2 was not tested)
07 [d9a61620] (000/670) No match (V2 was not tested)
08 [c9a7021e] (000/669) No match (V2 was not tested)
09 [a7ff8a2a] (000/671) No match (V2 was not tested)
10 [17122caf] (002/672) Accurately ripped
11 [e71fe111] (000/664) No match (V2 was not tested)
12 [ef400e61] (000/669) No match (V2 was not tested)
13 [692c9dce] (000/666) No match (V2 was not tested)
14 [696748fe] (000/663) No match (V2 was not tested)
15 [5818472b] (000/661) No match (V2 was not tested)
16 [6a8cdb22] (000/657) No match (V2 was not tested)
17 [cd0e768e] (000/661) No match (V2 was not tested)
18 [4a810e9e] (000/662) No match (V2 was not tested)
19 [f07bf173] (000/657) No match (V2 was not tested)
20 [605bfba1] (000/646) No match (V2 was not tested)
21 [9fd5f187] (000/635) No match
Offsetted by 675:
01 [699f9ab6] (104/674) Accurately ripped
02 [675b3d51] (104/678) Accurately ripped
03 [e7cfb2ad] (103/673) Accurately ripped
04 [3d4b92f0] (102/672) Accurately ripped
05 [5e3696c7] (102/676) Accurately ripped
06 [94473c2a] (103/672) Accurately ripped
07 [bb676456] (102/670) Accurately ripped
08 [b01528da] (101/669) Accurately ripped
09 [5fc2e27c] (102/671) Accurately ripped
10 [e267bc13] (104/672) Accurately ripped
11 [8cf3fc2b] (103/664) Accurately ripped
12 [179f7ec7] (102/669) Accurately ripped
13 [d8c40aa9] (103/666) Accurately ripped
14 [80ec3141] (102/663) Accurately ripped
15 [81675996] (102/661) Accurately ripped
16 [45419a52] (102/657) Accurately ripped
17 [940e64cc] (102/661) Accurately ripped
18 [9501e220] (103/662) Accurately ripped
19 [a85d0c6e] (103/657) Accurately ripped
20 [fef964b3] (102/646) Accurately ripped
21 [72b2cf23] (000/635) No match (V2 was not tested)

Track Peak [ CRC32 ] [W/O NULL] [ LOG ]
– 99,9 [7661B900] [084DFC97]
01 90,9 [86C6FDD6] [5FAA58D7] CRC32
02 95,0 [9328177D] [C1EE4EB9] CRC32
03 99,9 [D328805A] [9CF63679] CRC32
04 99,9 [F091E963] [B6117479] CRC32
05 99,9 [17E33C8C] [20B2B433] CRC32
06 99,9 [0088BE32] [153455D8] CRC32
07 99,9 [9394453D] [536D515E] CRC32
08 93,3 [410F423F] [603486C2] CRC32
09 99,9 [814272A0] [B4C6AB14] CRC32
10 99,9 [DD77834A] [59FDFD7B] CRC32
11 97,7 [D0792F2F] [82888C83] CRC32
12 95,0 [FE79F294] [A27125C3] CRC32
13 94,4 [5E30FB2E] [0E340990] CRC32
14 99,9 [BFDAA305] [E3BC6176] CRC32
15 79,3 [3004472B] [6C09BCDA] CRC32
16 89,1 [A4E1E309] [E3861792] CRC32
17 99,9 [770B32B4] [DDEF7432] CRC32
18 59,8 [6CE9A3A5] [A23AF995] CRC32
19 89,0 [2DD9B969] [656F43E7] CRC32
20 99,9 [7138973E] [2F7A65EF] CRC32
21 98,8 [CB733A2C] [0D7FAB44] CRC32

foobar2000 1.2 / Dynamic Range Meter 1.1.1
log date: 2018-01-31 17:19:32

––––––––––––––––––––––––––––––––––––––––
Analyzed: Beastie Boys / The Sounds Of Science (Beastie Boys Anthology) (Disc 2)
––––––––––––––––––––––––––––––––––––––––

DR Peak RMS Duration Track
––––––––––––––––––––––––––––––––––––––––
DR11 -0.82 dB -16.25 dB 0:34 01-The Biz Vs. The Nuge
DR8 -0.44 dB -10.22 dB 3:00 02-Sabotage
DR8 0.00 dB -9.79 dB 4:10 03-Shadrach
DR10 0.00 dB -12.34 dB 2:38 04-Brass Monkey
DR8 0.00 dB -9.52 dB 1:49 05-Time For Livin'
DR10 0.00 dB -11.58 dB 3:01 06-Dub The Mic
DR9 0.00 dB -9.89 dB 4:07 07-Benny And The Jets
DR7 -0.59 dB -9.59 dB 2:52 08-The Negotiation Limerick File
DR6 0.00 dB -7.68 dB 2:00 09-I Want Some
DR9 0.00 dB -10.14 dB 4:18 10-She's On It
DR9 -0.20 dB -12.22 dB 3:20 11-Son Of Neckbone
DR10 -0.44 dB -12.16 dB 4:06 12-Get It Together
DR10 -0.50 dB -12.64 dB 2:28 13-Twenty Questions
DR10 0.00 dB -11.09 dB 3:00 14-Remote Control
DR7 -2.01 dB -10.32 dB 2:38 15-Railroad Blues
DR8 -1.00 dB -12.26 dB 3:06 16-Live Wire
DR6 0.00 dB -6.36 dB 3:37 17-So What'cha Want
DR11 -4.46 dB -18.78 dB 3:00 18-Netty's Girl
DR9 -1.01 dB -11.74 dB 1:20 19-Egg Raid On Mojo
DR10 0.00 dB -11.32 dB 3:49 20-Hey Ladies
DR7 -0.10 dB -8.69 dB 3:30 21-Intergalactic
––––––––––––––––––––––––––––––––––––––––

Number of tracks: 21
Official DR value: DR9

Samplerate: 44100 Hz
Channels: 2
Bits per sample: 16
Bitrate: 984 kbps
Codec: FLAC
================================================================================

Beastie Boys - Beastie Boys Anthology: The Sounds of Science (1999) 2CDs

Beastie Boys - Beastie Boys Anthology: The Sounds of Science (1999) 2CDs