Subcategories

VA: Beatles Beginnings - Volume Two: Quarrymen – Rock'n'roll (2010)

Posted By: v3122
VA: Beatles Beginnings - Volume Two: Quarrymen – Rock'n'roll (2010)

VA: Beatles Beginnings - Volume Two: Quarrymen – Rock'n'roll (2010)
EAC | Flac(Image) + Cue + Log & MP3 CBR 320Kbps
Rhythm and Blues Records, 5065001126062 | ~ 319 or 156 Mb | Scans(png) -> 596 Mb
Rock'n'Roll

Jazz, rocknroll, blues, music hall, guitar instrumentals, tin pan alley, rockabilly, dance band, soul, bolero, skiffle, trad, R&B, country, old-time, Broadway, doo-wop, folk, high school pop, Motown - the Beatles early influences are so wide-ranging that this series of discs could quite easily pass for an introduction to the history of twentieth century popular music. For the first six years of their career, the Beatles were essentially a covers band. When they were captured live on tape in two sets at the Star Club in Hamburg in December 1962, they played thirty-two songs, only two of which were their own compositions. They established a repertoire of over 600 tunes, allowing them to tailor their set to the occasion for jazz clubs, strip clubs, church dances, folk clubs and working men's clubs. Quarrymen Two looks at the band's rocknroll influences. 'Alerting all Beatles fans! In fact, alerting anyone with even just a passing interest in music of Twentieth century popular music, for here's a terrific series of albums they may well want to check out… superbly researched booklets, each volume will delve into the music that inspired, influenced and shaped the Beatles individually and collectively. While Quarrymen One explored the band's very early highly eclectic musical influences from skiffle, C&W, jazz, blues, music hall through George Formby, and pop, Quarrymen Two narrows the focus onto the emergent rock'n'roll of the 1950s and is an absolute gas. Twenty-eight rocking classics and some long-lost gems, here's the very stuff that changed the world and forged the greatest band of all time. As the music rings out … you can almost hear the Beatles metamorphosing inside your ears as they listened, learned and immersed themselves, letting these songs open doors and fire their imagination: there was to be no looking back.' Colin Hall R2. 'Every baby-boomer whose life has been soundtracked by pop will be more than merely familiar with most of the items here, whether 'Long Tall Sally', 'Roll Over Beethoven', 'Matchbox', 'Honey Don't' and 'Words Of Love', all revived on disc by The Beatles after they'd left the runway. Almost as potent a selling point is Nick Duckett's entertaining and informative thirty-page essay within a package that is as likely to engross the general cultural historian as much as fans of this particular act.' Alan Clayson - The Beat. A series of compilation CDs highlighting the songs and styles that inspired the Beatles and which ultimately were responsible for shaping their sound. For too long the covers CD has been the province of freebie magazine cover-mounts and shoddy garage cheapies. No more. Because Rhythm And Blues Records are Doing It Right. An extensively illustrated 32 page booklet features detailed sleeve notes from the compilers, including a track-by-track commentary and an essay explaining the significance of each song to the band.

~ amazon
VA: Beatles Beginnings - Volume Two: Quarrymen – Rock'n'roll (2010):

VA: Beatles Beginnings - Volume Two: Quarrymen – Rock'n'roll (2010)

Tracklist:

1. Elvis Presley - Baby Let's Play House (2:18)
2. The Del-Vikings - Come Go With Me (2:41)
3. Fats Domino - Ain't That A Shame (2:32)
4. Gene Vincent - Be-Bop-A-Lula (2:39)
5. Eddie Cochran - Twenty Flight Rock (1:45)
6. Little Richard - Long Tall Sally (2:12)
7. Lloyd Price - Lawdy Miss Clawdy (2:32)
8. The Everly Brothers - Bye Bye Love (2:24)
9. Bill Justis - Raunchy (2:23)
10. Buddy Holly - That'll Be The Day (2:18)
11. Elvis Presley - Trying To Get To You (2:34)
12. Jerry Lee Lewis - Mean Woman Blues (2:26)
13. Little Richard - Lucille (2:26)
14. Chuck Berry - Roll Over Beethoven (2:26)
15. Elvis Presley - That's All Right (1:59)
16. Chuck Berry - Johnny B. Goode (2:41)
17. Carl Perkins - Lend Me Your Comb (2:00)
18. The Coasters - Searchin' (2:43)
19. The Coasters - Young Blood (2:22)
20. Buddy Holly - Words Of Love (1:58)
21. Carl Perkins - Honey Don't (2:50)
22. Chuck Berry - Sweet Little Sixteen (3:12)
23. Duane Eddy & The Rebels - Ramrod (1:43)
24. Duane Eddy & The Rebels - Movin' n' Groovin' (2:06)
25. Eddie Cochran - Hallelujah I Love Her So (2:20)
26. Carl Perkins - Matchbox (2:12)
27. Gene Vincent - Wildcat (2:26)
28. Fats Domino - I'll Always Be In Love With You (1:55)

Exact Audio Copy V1.0 beta 1 from 15. November 2010

EAC extraction logfile from 7. September 2011, 22:32

Various Artists / Beatles Beginnings: Quarrymen Rock'n'Roll

Used drive : Optiarc DVD RW AD-5200S Adapter: 2 ID: 0

Read mode : Secure
Utilize accurate stream : Yes
Defeat audio cache : Yes
Make use of C2 pointers : No

Read offset correction : 48
Overread into Lead-In and Lead-Out : No
Fill up missing offset samples with silence : Yes
Delete leading and trailing silent blocks : No
Null samples used in CRC calculations : Yes
Used interface : Native Win32 interface for Win NT & 2000

Used output format : User Defined Encoder
Selected bitrate : 1024 kBit/s
Quality : High
Add ID3 tag : No
Command line compressor : C:\Program Files (x86)\Exact Audio Copy\FLAC\FLAC.EXE
Additional command line options : -8 -V %s


TOC of the extracted CD

Track | Start | Length | Start sector | End sector
––––––––––––––––––––––––––––-
1 | 0:00.00 | 2:18.60 | 0 | 10409
2 | 2:18.60 | 2:41.63 | 10410 | 22547
3 | 5:00.48 | 2:32.45 | 22548 | 33992
4 | 7:33.18 | 2:39.17 | 33993 | 45934
5 | 10:12.35 | 1:45.49 | 45935 | 53858
6 | 11:58.09 | 2:12.59 | 53859 | 63817
7 | 14:10.68 | 2:32.18 | 63818 | 75235
8 | 16:43.11 | 2:24.01 | 75236 | 86036
9 | 19:07.12 | 2:23.65 | 86037 | 96826
10 | 21:31.02 | 2:18.52 | 96827 | 107228
11 | 23:49.54 | 2:34.35 | 107229 | 118813
12 | 26:24.14 | 2:26.64 | 118814 | 129827
13 | 28:51.03 | 2:26.27 | 129828 | 140804
14 | 31:17.30 | 2:26.13 | 140805 | 151767
15 | 33:43.43 | 1:59.52 | 151768 | 160744
16 | 35:43.20 | 2:41.18 | 160745 | 172837
17 | 38:24.38 | 2:00.15 | 172838 | 181852
18 | 40:24.53 | 2:43.22 | 181853 | 194099
19 | 43:08.00 | 2:22.01 | 194100 | 204750
20 | 45:30.01 | 1:58.28 | 204751 | 213628
21 | 47:28.29 | 2:50.11 | 213629 | 226389
22 | 50:18.40 | 3:12.29 | 226390 | 240818
23 | 53:30.69 | 1:43.36 | 240819 | 248579
24 | 55:14.30 | 2:06.34 | 248580 | 258063
25 | 57:20.64 | 2:20.37 | 258064 | 268600
26 | 59:41.26 | 2:12.20 | 268601 | 278520
27 | 61:53.46 | 2:26.30 | 278521 | 289500
28 | 64:20.01 | 1:54.72 | 289501 | 298122


Range status and errors

Selected range

Filename G:\Download\Музыка LossLess\Rock And Roll\Various Artists - Beatles Beginnings- Quarrymen Two - Rock'n'Roll\Various Artists - Beatles Beginnings- Quarrymen Rock'n'Roll.wav

Peak level 100.0 %
Extraction speed 0.1 X
Range quality 100.0 %
Test CRC 18CD255D
Copy CRC 18CD255D
Copy OK

No errors occurred


AccurateRip summary

Track 1 not present in database
Track 2 not present in database
Track 3 not present in database
Track 4 not present in database
Track 5 not present in database
Track 6 not present in database
Track 7 not present in database
Track 8 not present in database
Track 9 not present in database
Track 10 not present in database
Track 11 not present in database
Track 12 not present in database
Track 13 not present in database
Track 14 not present in database
Track 15 not present in database
Track 16 not present in database
Track 17 not present in database
Track 18 not present in database
Track 19 not present in database
Track 20 not present in database
Track 21 not present in database
Track 22 not present in database
Track 23 not present in database
Track 24 not present in database
Track 25 not present in database
Track 26 not present in database
Track 27 not present in database
Track 28 not present in database

None of the tracks are present in the AccurateRip database

End of status report

––––––––––––––––––––––––––––––

Exact Audio Copy V1.0 beta 1 from 15. November 2010

EAC extraction logfile from 16. September 2011, 21:01

Various Artists / Beatles Beginnings: Quarrymen Rock'n'Roll

Used drive : Optiarc DVD RW AD-5200S Adapter: 2 ID: 0

Read mode : Secure
Utilize accurate stream : Yes
Defeat audio cache : Yes
Make use of C2 pointers : No

Read offset correction : 48
Overread into Lead-In and Lead-Out : No
Fill up missing offset samples with silence : Yes
Delete leading and trailing silent blocks : No
Null samples used in CRC calculations : Yes
Used interface : Native Win32 interface for Win NT & 2000

Used output format : User Defined Encoder
Selected bitrate : 1024 kBit/s
Quality : High
Add ID3 tag : No
Command line compressor : C:\Program Files (x86)\Exact Audio Copy\FLAC\FLAC.EXE
Additional command line options : -8 -V %s


TOC of the extracted CD

Track | Start | Length | Start sector | End sector
––––––––––––––––––––––––––––-
1 | 0:00.00 | 2:18.60 | 0 | 10409
2 | 2:18.60 | 2:41.63 | 10410 | 22547
3 | 5:00.48 | 2:32.45 | 22548 | 33992
4 | 7:33.18 | 2:39.17 | 33993 | 45934
5 | 10:12.35 | 1:45.49 | 45935 | 53858
6 | 11:58.09 | 2:12.59 | 53859 | 63817
7 | 14:10.68 | 2:32.18 | 63818 | 75235
8 | 16:43.11 | 2:24.01 | 75236 | 86036
9 | 19:07.12 | 2:23.65 | 86037 | 96826
10 | 21:31.02 | 2:18.52 | 96827 | 107228
11 | 23:49.54 | 2:34.35 | 107229 | 118813
12 | 26:24.14 | 2:26.64 | 118814 | 129827
13 | 28:51.03 | 2:26.27 | 129828 | 140804
14 | 31:17.30 | 2:26.13 | 140805 | 151767
15 | 33:43.43 | 1:59.52 | 151768 | 160744
16 | 35:43.20 | 2:41.18 | 160745 | 172837
17 | 38:24.38 | 2:00.15 | 172838 | 181852
18 | 40:24.53 | 2:43.22 | 181853 | 194099
19 | 43:08.00 | 2:22.01 | 194100 | 204750
20 | 45:30.01 | 1:58.28 | 204751 | 213628
21 | 47:28.29 | 2:50.11 | 213629 | 226389
22 | 50:18.40 | 3:12.29 | 226390 | 240818
23 | 53:30.69 | 1:43.36 | 240819 | 248579
24 | 55:14.30 | 2:06.34 | 248580 | 258063
25 | 57:20.64 | 2:20.37 | 258064 | 268600
26 | 59:41.26 | 2:12.20 | 268601 | 278520
27 | 61:53.46 | 2:26.30 | 278521 | 289500
28 | 64:20.01 | 1:54.72 | 289501 | 298122


Range status and errors

Selected range

Filename G:\Download\Музыка LossLess\Rock And Roll\Various Artists - Beatles Beginnings- Quarrymen Two - Rock'n'Roll\Various Artists - Beatles Beginnings- Quarrymen Rock'n'Roll.wav

Peak level 100.0 %
Extraction speed 0.1 X
Range quality 100.0 %
Test CRC 18CD255D
Copy CRC 18CD255D
Copy OK

No errors occurred


AccurateRip summary

Track 1 not present in database
Track 2 not present in database
Track 3 not present in database
Track 4 not present in database
Track 5 not present in database
Track 6 not present in database
Track 7 not present in database
Track 8 not present in database
Track 9 not present in database
Track 10 not present in database
Track 11 not present in database
Track 12 not present in database
Track 13 not present in database
Track 14 not present in database
Track 15 not present in database
Track 16 not present in database
Track 17 not present in database
Track 18 not present in database
Track 19 not present in database
Track 20 not present in database
Track 21 not present in database
Track 22 not present in database
Track 23 not present in database
Track 24 not present in database
Track 25 not present in database
Track 26 not present in database
Track 27 not present in database
Track 28 not present in database

None of the tracks are present in the AccurateRip database

End of status report

foobar2000 1.2.9 / Dynamic Range Meter 1.1.1
log date: 2015-05-11 12:27:26

––––––––––––––––––––––––––––––––––––––––
Analyzed: Bill Justis / Beatles Beginnings: Quarrymen Rock'n'Roll (1)
Buddy Holly / Beatles Beginnings: Quarrymen Rock'n'Roll (2-3)
––––––––––––––––––––––––––––––––––––––––

DR Peak RMS Duration Track
––––––––––––––––––––––––––––––––––––––––
DR6 -0.01 dB -7.11 dB 2:24 09-Raunchy
DR6 0.00 dB -7.12 dB 2:19 10-That'll Be The Day
DR8 -0.01 dB -9.54 dB 1:58 20-Words Of Love
––––––––––––––––––––––––––––––––––––––––

Number of tracks: 3
Official DR value: DR7

Samplerate: 44100 Hz
Channels: 2
Bits per sample: 16
Bitrate: 653 kbps
Codec: FLAC
================================================================================

––––––––––––––––––––––––––––––––––––––––
Analyzed: Carl Perkins / Beatles Beginnings: Quarrymen Rock'n'Roll
––––––––––––––––––––––––––––––––––––––––

DR Peak RMS Duration Track
––––––––––––––––––––––––––––––––––––––––
DR9 -0.01 dB -10.01 dB 2:00 17-Lend Me Your Comb
DR6 -0.01 dB -7.44 dB 2:50 21-Honey Don't
DR8 -0.01 dB -9.66 dB 2:12 26-Matchbox
––––––––––––––––––––––––––––––––––––––––

Number of tracks: 3
Official DR value: DR8

Samplerate: 44100 Hz
Channels: 2
Bits per sample: 16
Bitrate: 653 kbps
Codec: FLAC
================================================================================

––––––––––––––––––––––––––––––––––––––––
Analyzed: Chuck Berry / Beatles Beginnings: Quarrymen Rock'n'Roll (1-3)
Duane Eddy & The Rebels / Beatles Beginnings: Quarrymen Rock'n'Roll (4-5)
––––––––––––––––––––––––––––––––––––––––

DR Peak RMS Duration Track
––––––––––––––––––––––––––––––––––––––––
DR6 -0.01 dB -6.56 dB 2:26 14-Roll Over Beethoven
DR7 -0.01 dB -8.00 dB 2:41 16-Johnny B. Goode
DR8 -0.01 dB -8.44 dB 3:12 22-Sweet Little Sixteen
DR6 -0.01 dB -7.45 dB 1:43 23-Ramrod
DR5 -0.01 dB -6.58 dB 2:06 24-Movin' n' Groovin'
––––––––––––––––––––––––––––––––––––––––

Number of tracks: 5
Official DR value: DR6

Samplerate: 44100 Hz
Channels: 2
Bits per sample: 16
Bitrate: 653 kbps
Codec: FLAC
================================================================================

––––––––––––––––––––––––––––––––––––––––
Analyzed: Eddie Cochran / Beatles Beginnings: Quarrymen Rock'n'Roll
––––––––––––––––––––––––––––––––––––––––

DR Peak RMS Duration Track
––––––––––––––––––––––––––––––––––––––––
DR6 -0.01 dB -6.86 dB 1:46 05-Twenty Flight Rock
DR8 -0.01 dB -9.72 dB 2:20 25-Hallelujah I Love Her So
––––––––––––––––––––––––––––––––––––––––

Number of tracks: 2
Official DR value: DR7

Samplerate: 44100 Hz
Channels: 2
Bits per sample: 16
Bitrate: 653 kbps
Codec: FLAC
================================================================================

––––––––––––––––––––––––––––––––––––––––
Analyzed: Elvis Presley / Beatles Beginnings: Quarrymen Rock'n'Roll
––––––––––––––––––––––––––––––––––––––––

DR Peak RMS Duration Track
––––––––––––––––––––––––––––––––––––––––
DR6 -0.01 dB -6.76 dB 2:19 01-Baby Let's Play House
DR6 -0.01 dB -7.34 dB 2:34 11-Trying To Get To You
DR6 -0.01 dB -7.56 dB 2:00 15-That's All Right
––––––––––––––––––––––––––––––––––––––––

Number of tracks: 3
Official DR value: DR6

Samplerate: 44100 Hz
Channels: 2
Bits per sample: 16
Bitrate: 653 kbps
Codec: FLAC
================================================================================

––––––––––––––––––––––––––––––––––––––––
Analyzed: Fats Domino / Beatles Beginnings: Quarrymen Rock'n'Roll
––––––––––––––––––––––––––––––––––––––––

DR Peak RMS Duration Track
––––––––––––––––––––––––––––––––––––––––
DR6 -0.01 dB -6.75 dB 2:33 03-Ain't That A Shame
DR6 0.00 dB -7.40 dB 1:55 28-I'll Always Be In Love With You
––––––––––––––––––––––––––––––––––––––––

Number of tracks: 2
Official DR value: DR6

Samplerate: 44100 Hz
Channels: 2
Bits per sample: 16
Bitrate: 653 kbps
Codec: FLAC
================================================================================

––––––––––––––––––––––––––––––––––––––––
Analyzed: Gene Vincent / Beatles Beginnings: Quarrymen Rock'n'Roll
––––––––––––––––––––––––––––––––––––––––

DR Peak RMS Duration Track
––––––––––––––––––––––––––––––––––––––––
DR6 -0.01 dB -6.84 dB 2:39 04-Be-Bop-A-Lula
DR8 -0.01 dB -9.16 dB 2:26 27-Wildcat
––––––––––––––––––––––––––––––––––––––––

Number of tracks: 2
Official DR value: DR7

Samplerate: 44100 Hz
Channels: 2
Bits per sample: 16
Bitrate: 653 kbps
Codec: FLAC
================================================================================

––––––––––––––––––––––––––––––––––––––––
Statistics for: 12-Mean Woman Blues
Number of samples: 6476232
Duration: 2:27
––––––––––––––––––––––––––––––––––––––––

Left Right

Peak Value: -0.08 dB –- -0.01 dB
Avg RMS: -8.93 dB –- -8.77 dB
DR channel: 7.39 dB –- 7.33 dB
––––––––––––––––––––––––––––––––––––––––

Official DR Value: DR7

Samplerate: 44100 Hz
Channels: 2
Bits per sample: 16
Bitrate: 653 kbps
Codec: FLAC
================================================================================
––––––––––––––––––––––––––––––––––––––––
Analyzed: Little Richard / Beatles Beginnings: Quarrymen Rock'n'Roll
––––––––––––––––––––––––––––––––––––––––

DR Peak RMS Duration Track
––––––––––––––––––––––––––––––––––––––––
DR7 -0.01 dB -8.47 dB 2:13 06-Long Tall Sally
DR9 -0.01 dB -10.20 dB 2:26 13-Lucille
––––––––––––––––––––––––––––––––––––––––

Number of tracks: 2
Official DR value: DR8

Samplerate: 44100 Hz
Channels: 2
Bits per sample: 16
Bitrate: 653 kbps
Codec: FLAC
================================================================================

––––––––––––––––––––––––––––––––––––––––
Analyzed: Lloyd Price / Beatles Beginnings: Quarrymen Rock'n'Roll (1)
The Coasters / Beatles Beginnings: Quarrymen Rock'n'Roll (2-3)
––––––––––––––––––––––––––––––––––––––––

DR Peak RMS Duration Track
––––––––––––––––––––––––––––––––––––––––
DR7 -0.01 dB -7.55 dB 2:32 07-Lawdy Miss Clawdy
DR8 -0.01 dB -9.93 dB 2:43 18-Searchin'
DR8 -0.01 dB -9.06 dB 2:22 19-Young Blood
––––––––––––––––––––––––––––––––––––––––

Number of tracks: 3
Official DR value: DR8

Samplerate: 44100 Hz
Channels: 2
Bits per sample: 16
Bitrate: 653 kbps
Codec: FLAC
================================================================================

––––––––––––––––––––––––––––––––––––––––
Analyzed: The Del-Vikings / Beatles Beginnings: Quarrymen Rock'n'Roll (1)
The Everly Brothers / Beatles Beginnings: Quarrymen Rock'n'Roll (2)
––––––––––––––––––––––––––––––––––––––––

DR Peak RMS Duration Track
––––––––––––––––––––––––––––––––––––––––
DR6 -0.01 dB -6.69 dB 2:42 02-Come Go With Me
DR7 -0.01 dB -7.43 dB 2:24 08-Bye Bye Love
––––––––––––––––––––––––––––––––––––––––

Number of tracks: 2
Official DR value: DR6

Samplerate: 44100 Hz
Channels: 2
Bits per sample: 16
Bitrate: 653 kbps
Codec: FLAC

[CUETools log; Date: 11.05.2015 12:27:45; Version: 2.1.4]
[CTDB TOCID: 5GyVHJVuua13eQU.i0wXbhttD_4-] disk not present in database.
[AccurateRip ID: 0042bc76-0534eb56-5e0f861c] found.
Track [ CRC | V2 ] Status
01 [668074a2|841fd511] (2+2/4) Accurately ripped
02 [3e522eed|26635a59] (2+2/4) Accurately ripped
03 [4434e5bb|719d7eac] (2+2/4) Accurately ripped
04 [92f1629d|864f95f9] (2+2/4) Accurately ripped
05 [910c1db5|0329be44] (2+2/4) Accurately ripped
06 [c1b6bb74|ced984ab] (2+2/4) Accurately ripped
07 [97dca37e|8f6938b7] (2+2/4) Accurately ripped
08 [ad0c7072|97502800] (2+2/4) Accurately ripped
09 [0510c3a6|5817f65d] (2+2/4) Accurately ripped
10 [277921a0|1ab49c5f] (2+2/4) Accurately ripped
11 [a418844b|fd86c954] (2+2/4) Accurately ripped
12 [79bf9e73|55d22adb] (2+2/4) Accurately ripped
13 [1a27ef63|0c1b0d78] (2+2/4) Accurately ripped
14 [cdc2ac18|97b3374c] (2+2/4) Accurately ripped
15 [9529a6e7|970fa74a] (2+2/4) Accurately ripped
16 [c66e8571|f8586058] (2+2/4) Accurately ripped
17 [c60e4645|eda92867] (2+2/4) Accurately ripped
18 [c653a9d9|6cc4efd9] (2+2/4) Accurately ripped
19 [a1c3c686|4f993d41] (2+2/4) Accurately ripped
20 [d04bc54c|1c7ea56d] (2+2/4) Accurately ripped
21 [7bed0142|866e894a] (2+2/4) Accurately ripped
22 [1b40b7c0|b3736a33] (2+2/4) Accurately ripped
23 [a3f6b3a9|aa12c30a] (2+2/4) Accurately ripped
24 [fe590553|2c2ff568] (2+2/4) Accurately ripped
25 [35dee8dd|c649944a] (2+2/4) Accurately ripped
26 [bc07e783|75f3a595] (2+2/4) Accurately ripped
27 [00b277ba|1c935342] (2+2/4) Accurately ripped
28 [8d130793|3f1d285b] (2+2/4) Accurately ripped

Track Peak [ CRC32 ] [W/O NULL] [ LOG ]
– 100,0 [18CD255D] [58F6853C]
01 99,9 [9641AE2A] [15298315] [18CD255D]
02 99,9 [A9FC7656] [727C020D] [18CD255D]
03 99,9 [132BA910] [54A61D81]
04 99,9 [2E7E2B00] [74B90FD7]
05 99,9 [3B0D66D0] [F07ED8B8]
06 99,9 [7401E50A] [CABF59D0]
07 99,9 [7657B42E] [88DBFC4A]
08 99,9 [3781BB78] [B8ADEA8E]
09 99,9 [692DA98B] [90FA802B]
10 100,0 [7EFCEE6C] [7300B6A8]
11 99,9 [4654D48D] [493EA8B9]
12 99,9 [E2C5B71F] [C48AB44C]
13 99,9 [FED5AFD7] [E342C421]
14 99,9 [057EB5DC] [4349B971]
15 99,9 [D1442884] [9E73F5F8]
16 99,9 [1FDE75CF] [52D7CEF4]
17 99,9 [777675CF] [69E81459]
18 99,9 [0CD91C37] [11983A65]
19 99,9 [B60D050F] [E83640A0]
20 99,9 [C63FC1CF] [0BEC0AA3]
21 99,9 [605D6D8B] [9692562C]
22 99,9 [92E10B22] [075F37A1]
23 99,9 [A1CDE3B5] [903B972F]
24 99,9 [2C55CDED] [AE42FB66]
25 99,9 [C60C20C3] [3E40F274]
26 99,9 [61F80FF2] [49B90A00]
27 99,9 [68B7BB02] [A9098F9C]
28 100,0 [3BD00A4F] [C674EFA9]

VA: Beatles Beginnings - Volume Two: Quarrymen – Rock'n'roll (2010)

All thanks go to gerrV

Download VA: Beatles Beginnings - Volume Two: Quarrymen – Rock'n'roll (2010):