Subcategories

Beauty Farm - Jacob Obrecht: Masses (2019)

Posted By: ArlegZ
Beauty Farm - Jacob Obrecht: Masses (2019)

Beauty Farm - Jacob Obrecht: Masses (2019)
EAC | FLAC | Image (Cue & Log) ~ 533 Mb | Total time: 38:08+55:37 | Digital booklet
Classical | Label: Fra Bernardo | # fb 1905157 | Recorded: 2018

The music of the Renaissance appears to reflect little of the dangers, horrors and violent conflicts of its time. Music written during the Hundred Years War or the French invasion of Italy gives hardly any impression to todays ears of the precariousness of existence of which its composers, singers and listeners must have continually been aware. Nor do the two masses by Jacob Obrecht (1457/8 1505) on this recording betray anything of the restless spirit of the age, despite them both being based on models referring to suffering and misery. Founded by Markus Muntean and Bernhard Trebuch- out of passion for vocal polyphony and a kind of despair about the break in the interpretation of this music which took place in the 1980s- beauty farm gathers young singers, leaving traditions behind, willing to experiment and exploring new musical territory.

Performer:
Beauty Farm:
Bart Uvyn, countertenor
Jon Etxabe Arzuaga, tenor
Florian Schmitt, tenor
Joachim Höchbauer, bass

Track List:
CD1:
01. Antoine Busnois: Fortuna Desperata
02. Jacob Obrecht: Missa Fortuna Desperata I. Kyrie
03. II. Gloria
04. III. Credo
05. IV. Sanctus
06. V. Agnus Dei
CD2:
01. Traditional - Maria Zart, Von Edler Art
02. Jacob Obrecht: Missa Maria Zart I. Kyrie
03. II. Gloria
04. III. Credo
05. IV. Sanctus
06. V. Agnus Dei


Exact Audio Copy V1.2 from 12. August 2016

EAC extraction logfile from 29. May 2019, 20:58

Beauty Farm / Masses (Disc A)

Used drive : MATSHITADVD-RAM UJ8G6 Adapter: 1 ID: 0

Read mode : Secure
Utilize accurate stream : Yes
Defeat audio cache : Yes
Make use of C2 pointers : No

Read offset correction : 103
Overread into Lead-In and Lead-Out : No
Fill up missing offset samples with silence : Yes
Delete leading and trailing silent blocks : No
Null samples used in CRC calculations : Yes
Used interface : Native Win32 interface for Win NT & 2000

Used output format : User Defined Encoder
Selected bitrate : 768 kBit/s
Quality : High
Add ID3 tag : No
Command line compressor : C:\Program Files (x86)\Exact Audio Copy\Flac\flac.exe
Additional command line options : -6 -V -T "ARTIST=%artist%" -T "TITLE=%title%" -T "ALBUM=%albumtitle%" -T "DATE=%year%" -T "TRACKNUMBER=%tracknr%" -T "GENRE=%genre%" -T "COMMENT=%comment%" -T "BAND=%albuminterpret%" -T "ALBUMARTIST=%albuminterpret%" -T "COMPOSER=%composer%" %haslyrics%–tag-from-file=LYRICS="%lyricsfile%"%haslyrics% -T "DISCNUMBER=%cdnumber%" -T "TOTALDISCS=%totalcds%" -T "TOTALTRACKS=%numtracks%" %hascover%–picture="%coverfile%"%hascover% %source% -o %dest%

TOC of the extracted CD

Track | Start | Length | Start sector | End sector
––––––––––––––––––––––––––––-
1 | 0:00.00 | 1:50.07 | 0 | 8256
2 | 1:50.07 | 4:53.58 | 8257 | 30289
3 | 6:43.65 | 6:40.43 | 30290 | 60332
4 | 13:24.33 | 6:07.65 | 60333 | 87922
5 | 19:32.23 | 9:47.25 | 87923 | 131972
6 | 29:19.48 | 8:51.44 | 131973 | 171841

Range status and errors

Selected range

Filename C:\Users\Roy\Music\OBRECHT - Masses (2018) [Beauty Farm; fra bernardo]\CD (FLAC + CUE)\Disc A\Jacob Obrecht - Masses (Disc A).wav

Peak level 100.0 %
Extraction speed 2.3 X
Range quality 100.0 %
Test CRC F0F0E203
Copy CRC F0F0E203
Copy OK

No errors occurred

AccurateRip summary

Track 1 not present in database
Track 2 not present in database
Track 3 not present in database
Track 4 not present in database
Track 5 not present in database
Track 6 not present in database

None of the tracks are present in the AccurateRip database

End of status report

–– CUETools DB Plugin V2.1.6

[CTDB TOCID: RrYR5Vjf.msAxUqK7b2rSz074n4-] found
Submit result: RrYR5Vjf.msAxUqK7b2rSz074n4- has been confirmed
Track | CTDB Status
1 | (3/3) Accurately ripped
2 | (3/3) Accurately ripped
3 | (3/3) Accurately ripped
4 | (3/3) Accurately ripped
5 | (3/3) Accurately ripped
6 | (3/3) Accurately ripped

==== Log checksum 3124A438DAE12E7F3CCCE7D0B3F28818E349935F57970354C2E8D3F97DC34761 ====


Exact Audio Copy V1.2 from 12. August 2016

EAC extraction logfile from 30. May 2019, 2:37

Beauty Farm / Masses (Disc B)

Used drive : MATSHITADVD-RAM UJ8G6 Adapter: 1 ID: 0

Read mode : Secure
Utilize accurate stream : Yes
Defeat audio cache : Yes
Make use of C2 pointers : No

Read offset correction : 103
Overread into Lead-In and Lead-Out : No
Fill up missing offset samples with silence : Yes
Delete leading and trailing silent blocks : No
Null samples used in CRC calculations : Yes
Used interface : Native Win32 interface for Win NT & 2000

Used output format : User Defined Encoder
Selected bitrate : 768 kBit/s
Quality : High
Add ID3 tag : No
Command line compressor : C:\Program Files (x86)\Exact Audio Copy\Flac\flac.exe
Additional command line options : -6 -V -T "ARTIST=%artist%" -T "TITLE=%title%" -T "ALBUM=%albumtitle%" -T "DATE=%year%" -T "TRACKNUMBER=%tracknr%" -T "GENRE=%genre%" -T "COMMENT=%comment%" -T "BAND=%albuminterpret%" -T "ALBUMARTIST=%albuminterpret%" -T "COMPOSER=%composer%" %haslyrics%–tag-from-file=LYRICS="%lyricsfile%"%haslyrics% -T "DISCNUMBER=%cdnumber%" -T "TOTALDISCS=%totalcds%" -T "TOTALTRACKS=%numtracks%" %hascover%–picture="%coverfile%"%hascover% %source% -o %dest%

TOC of the extracted CD

Track | Start | Length | Start sector | End sector
––––––––––––––––––––––––––––-
1 | 0:00.00 | 1:04.37 | 0 | 4836
2 | 1:04.37 | 6:12.41 | 4837 | 32777
3 | 7:17.03 | 12:52.60 | 32778 | 90737
4 | 20:09.63 | 12:57.29 | 90738 | 149041
5 | 33:07.17 | 13:28.68 | 149042 | 209709
6 | 46:36.10 | 10:08.62 | 209710 | 255371

Range status and errors

Selected range

Filename C:\Users\Roy\Music\OBRECHT - Masses (2018) [Beauty Farm; fra bernardo]\CD (FLAC + CUE)\Disc B\Jacob Obrecht - Masses (Disc B).wav

Peak level 97.0 %
Extraction speed 1.1 X
Range quality 99.9 %
Test CRC AEFDC5C7
Copy CRC AEFDC5C7
Copy OK

No errors occurred

AccurateRip summary

Track 1 not present in database
Track 2 not present in database
Track 3 not present in database
Track 4 not present in database
Track 5 not present in database
Track 6 not present in database

None of the tracks are present in the AccurateRip database

End of status report

–– CUETools DB Plugin V2.1.6

[CTDB TOCID: IOfCpjkZvonkVlc4ilyugkQi9R8-] found
Submit result: IOfCpjkZvonkVlc4ilyugkQi9R8- has been confirmed
Track | CTDB Status
1 | (2/2) Accurately ripped
2 | (2/2) Accurately ripped
3 | (2/2) Accurately ripped
4 | (2/2) Accurately ripped
5 | (2/2) Accurately ripped
6 | (2/2) Accurately ripped

==== Log checksum 28105B2DAFA8B66A3654F16618250D045C1ACDEEFE53887A52C6887E66C41010 ====

Beauty Farm - Jacob Obrecht: Masses (2019)

Thanks to the original releaser