Subcategories

Beaux Arts Trio - Korngold, Zemlinsky: Piano Trios (1993)

Posted By: tirexiss
Beaux Arts Trio - Korngold, Zemlinsky: Piano Trios (1993)

Beaux Arts Trio - Korngold, Zemlinsky: Piano Trios (1993)
EAC | FLAC (image+.cue, log) | Covers Included | 01:01:05 | 242 MB
Genre: Classical | Label: Philips | Catalog: 434 072-2

These works, and this recording, work for me. Listening to Korngold's Op.1, you'd never suspect he was 12 years old when he composed it. It's the work of a mature composer, albeit one who would go on to find more of his own voice. But that's the case with all great artists of course. And Zemlinksy's works are always ingenious and rewarding. The professional relationship between these two composers makes the relationship between these two trios all the more interesting. As usual, the Beaux Arts Trio plays impeccably and Philips has created a magnificent recording. Highly recommended.

Beaux Arts Trio - Korngold, Zemlinsky: Piano Trios (1993)

Track List:

01. Korngold - Trio in D Op.1 -I- Allegro non troppo, con espressione [0:10:36.00]
02. Korngold - Trio in D Op.1 -II- Scherzo - Trio - Allegro [0:07:18.37]
03. Korngold - Trio in D Op.1 -III- Larghetto [0:07:02.38]
04. Korngold - Trio in D Op.1 -IV- Finale. Allegro molto e energico [0:08:21.00]

05. Zemlinsky - Trio in D minor Op.3 -I- Allegro non troppo [0:13:29.00]
06. Zemlinsky - Trio in D minor Op.3 -II- Andante [0:08:46.00]
07. Zemlinsky - Trio in D minor Op.3 -III- Allegro [0:05:32.00]

Performers:
Beaux Arts Trio:
Menahem Pressler (piano)
Isidore Cohen (violin)
Peter Wiley (cello)

Exact Audio Copy V0.99 prebeta 4 from 23. January 2008

EAC extraction logfile from 29. January 2009, 17:06

Beaux Arts Trio / Korngold, Zemlinsky, Chamber Music

Used drive : TSSTcorpCDDVDW TS-L632H Adapter: 2 ID: 0

Read mode : Secure
Utilize accurate stream : Yes
Defeat audio cache : Yes
Make use of C2 pointers : No

Read offset correction : 0
Overread into Lead-In and Lead-Out : No
Fill up missing offset samples with silence : Yes
Delete leading and trailing silent blocks : No
Null samples used in CRC calculations : Yes
Used interface : Native Win32 interface for Win NT & 2000

Used output format : Monkey's Audio Lossless Encoder v3.99 DLL
Sample format : Normal Lossless Compression


TOC of the extracted CD

Track | Start | Length | Start sector | End sector
––––––––––––––––––––––––––––-
1 | 0:00.33 | 10:36.00 | 33 | 47732
2 | 10:36.33 | 7:18.37 | 47733 | 80619
3 | 17:54.70 | 7:02.38 | 80620 | 112307
4 | 24:57.33 | 8:21.00 | 112308 | 149882
5 | 33:18.33 | 13:29.00 | 149883 | 210557
6 | 46:47.33 | 8:46.00 | 210558 | 250007
7 | 55:33.33 | 5:32.00 | 250008 | 274907


Range status and errors

Selected range

Filename C:\Users\horacio\Desktop\Beaux Arts Trio - Korngold, Zemlinsky, Chamber Music.ape

Peak level 100.0 %
Range quality 100.0 %
Copy CRC B17BF29E
Copy OK

No errors occurred

End of status report

[CUETools log; Date: 13.02.2018 22:33:46; Version: 2.1.5]
Pregap length 00:00:33.
[CTDB TOCID: FuCVdazZlyqP8akKDNTW1MQr7pA-] found.
Track | CTDB Status
1 | (24/24) Accurately ripped
2 | (24/24) Accurately ripped
3 | (24/24) Accurately ripped
4 | (24/24) Accurately ripped
5 | (24/24) Accurately ripped
6 | (24/24) Accurately ripped
7 | (24/24) Accurately ripped
[AccurateRip ID: 00112ea3-0066fa02-5b0e5107] found.
Track [ CRC | V2 ] Status
01 [9d45286b|2341f00c] (00+00/22) No match
02 [3e65c902|1a4b4496] (00+00/22) No match
03 [5a5c2af4|ce2c6130] (00+00/22) No match
04 [da110471|5009adfc] (00+00/22) No match
05 [24abfe85|11d63015] (00+00/22) No match
06 [e4d28816|f9d7c200] (00+00/22) No match
07 [1e2dee53|07330f3c] (00+00/22) No match
Offsetted by 6:
01 [6323931d] (06/22) Accurately ripped
02 [1d222674] (06/22) Accurately ripped
03 [4c59fcc6] (06/22) Accurately ripped
04 [a247a7b0] (06/22) Accurately ripped
05 [42b1b879] (06/22) Accurately ripped
06 [5f87ea84] (06/22) Accurately ripped
07 [44fbd3a0] (06/22) Accurately ripped
Offsetted by -470:
01 [da91678a] (00/22) No match (V2 was not tested)
02 [cf8bf915] (00/22) No match (V2 was not tested)
03 [69f2d6a9] (00/22) No match (V2 was not tested)
04 [9f2ab6ae] (00/22) No match (V2 was not tested)
05 [7728c4ba] (00/22) No match (V2 was not tested)
06 [e4200a4c] (00/22) No match (V2 was not tested)
07 [96558e10] (00/22) No match (V2 was not tested)

Track Peak [ CRC32 ] [W/O NULL] [ LOG ]
– 100,0 [B17BF29E] [B8F85660] CRC32
01 74,9 [F4D3D61A] [ABD5475E]
02 94,5 [66ECED19] [D544E68A]
03 100,0 [4A6F77EF] [AFB53DD2]
04 100,0 [3B42DBE8] [27DCC7D8]
05 98,9 [64508FB4] [2A48C75F]
06 63,6 [FD5582D2] [B0404E5A]
07 95,7 [42D1B4A3] [3B17FCB6]

Thanks to the Original ripper (unknown)!

Download: