Subcategories

Beaux Arts Trio - Mozart: The Complete Piano Trios (1995)

Posted By: murena
Beaux Arts Trio - Mozart: The Complete Piano Trios (1995)

Beaux Arts Trio - Mozart: The Complete Piano Trios (1995)
EAC Rip | APE (Image+.cue, log) | 02:20:59 min | Covers included | 617 mb
Genre: Classical / Label: Philips

Long recognized as the leading piano trio in a competitive field, the Beaux Arts Trio is known for precise, straightforward performances and recordings of everything in the standard Central European trio literature.

The trio made its debut July 13, 1955, having been assembled by French violinist Daniel Guilet; his inclination was to name the ensemble after himself, but he settled on a French name that would outlast the group's initial personnel. Guilet, born in France in 1899, had concertized as a soloist and chamber musician (notably with the Calvet Quartet) before moving to the U.S. in 1941. He joined the NBC Symphony in 1944 and became its concertmaster in 1951. Guilet had performed and recorded chamber music with cellist Bernard Greenhouse and pianist Menahem Pressler in studio recordings. The three first came together in a recording for MGM of Carnival of the Animals, were mutually impressed with the grouping, and soon formed the trio.

The Beaux Arts Trio enjoyed a long-term recording contract with Philips from the late 1950s. Its first project was a Beethoven cycle, and its most remarkable project was recording the complete trios of Haydn in the 1970s.

Tracklist:
CD1
1-3. Piano Trio in E, K.542
4-6. Piano Trio in B flat, K.502
7-9. Piano Trio in G, K.564
10-12. Piano Trio in C, K.548

Exact Audio Copy V0.99 prebeta 5 from 4. May 2009
EAC extraction logfile from 8. November 2009, 12:38
Beaux Arts Trio / Mozart: Complete Piano Trios [Disc 1]
Used drive : HL-DT-STDVD-RW GWA-4082N Adapter: 0 ID: 0
Read mode : Secure
Utilize accurate stream : Yes
Defeat audio cache : Yes
Make use of C2 pointers : No
Read offset correction : 667
Overread into Lead-In and Lead-Out : No
Fill up missing offset samples with silence : Yes
Delete leading and trailing silent blocks : No
Null samples used in CRC calculations : Yes
Used interface : Installed external ASPI interface
Used output format : Internal WAV Routines
Sample format : 44.100 Hz; 16 Bit; Stereo
TOC of the extracted CD
Track | Start | Length | Start sector | End sector
––––––––––––––––––––––––––––-
1 | 0:00.32 | 7:10.13 | 32 | 32294
2 | 7:10.45 | 4:43.00 | 32295 | 53519
3 | 11:53.45 | 6:51.00 | 53520 | 84344
4 | 18:44.45 | 8:22.00 | 84345 | 121994
5 | 27:06.45 | 9:36.00 | 121995 | 165194
6 | 36:42.45 | 5:50.00 | 165195 | 191444
7 | 42:32.45 | 5:14.00 | 191445 | 214994
8 | 47:46.45 | 6:54.00 | 214995 | 246044
9 | 54:40.45 | 4:37.00 | 246045 | 266819
10 | 59:17.45 | 5:11.00 | 266820 | 290144
11 | 64:28.45 | 7:09.00 | 290145 | 322319
12 | 71:37.45 | 4:06.00 | 322320 | 340769
Range status and errors
Selected range
Filename D:\NaRazda4i\Mozart_Trios\CD1\Beaux Arts Trio - Mozart Complete Piano Trios [Disc 1].wav
Peak level 100.0 %
Range quality 100.0 %
Copy CRC 5E48CD71
Copy OK
No errors occurred
End of status report


CD2
1-3. Piano Trio in B flat, K.254
4-6. Piano Trio in G, K.496
7-9. Trio in E flat, K.498, Clarinet Trio 'Kegelsatt'

Exact Audio Copy V0.99 prebeta 5 from 4. May 2009
EAC extraction logfile from 8. November 2009, 13:04
Beaux Arts Trio / Mozart: Complete Piano Trios [Disc 2]
Used drive : HL-DT-STDVD-RW GWA-4082N Adapter: 0 ID: 0
Read mode : Secure
Utilize accurate stream : Yes
Defeat audio cache : Yes
Make use of C2 pointers : No
Read offset correction : 667
Overread into Lead-In and Lead-Out : No
Fill up missing offset samples with silence : Yes
Delete leading and trailing silent blocks : No
Null samples used in CRC calculations : Yes
Used interface : Installed external ASPI interface
Used output format : Internal WAV Routines
Sample format : 44.100 Hz; 16 Bit; Stereo
TOC of the extracted CD
Track | Start | Length | Start sector | End sector
––––––––––––––––––––––––––––-
1 | 0:00.32 | 6:09.14 | 32 | 27720
2 | 6:09.46 | 5:46.00 | 27721 | 53670
3 | 11:55.46 | 6:44.74 | 53671 | 84044
4 | 18:40.45 | 8:32.00 | 84045 | 122444
5 | 27:12.45 | 7:57.01 | 122445 | 158220
6 | 35:09.46 | 9:44.00 | 158221 | 202020
7 | 44:53.46 | 6:18.74 | 202021 | 230444
8 | 51:12.45 | 5:50.00 | 230445 | 256694
9 | 57:02.45 | 8:25.00 | 256695 | 294569
Range status and errors
Selected range
Filename D:\NaRazda4i\Mozart_Trios\CD2\Beaux Arts Trio - Mozart Complete Piano Trios [Disc 2].wav
Peak level 93.8 %
Range quality 100.0 %
Copy CRC 28B91462
Copy OK
No errors occurred
End of status report


Thanks to original ripper.