Subcategories

Bee Gees - Best Of Bee Gees, Vol.1 (1969) {1987, Reissue} * RE-UP *

Posted By: popsakov
Bee Gees - Best Of Bee Gees, Vol.1 (1969) {1987, Reissue} * RE-UP *

Bee Gees - Best Of Bee Gees, Vol.1 (1969)
EAC Rip | FLAC (Img) + Cue + Log ~ 236 Mb | MP3 CBR320 ~ 107 Mb
Scans Included (JPG, 300 dpi) | RAR 5% Recovery
Soft Rock, Classic Rock | Polydor #831 594-2/D 115055 (US)

Best of Bee Gees is a 1969 compilation album by Bee Gees. It was their first international greatest hits album. It featured their singles from 1966-1969 with the exception of the band's 1968 single "Jumbo". "Every Christian Lion Hearted Man Will Show You" was the only track in this album which was not released as a single. The following songs in this compilation from 1966-1969 was very popular worldwide and was picked up by many casual fans who owned no other Bee Gees album. It includes the US singles "Holiday" and "I Started a Joke". In October 2010, Best of Bee Gees was listed at No. 16 in the book, 100 Best Australian Albums.
~ Wiki

If anyone needs conclusive proof that the brothers Gibb weren't always the chest-medallion-flashing kings of mainstream disco or, since about 1980 on, meaningless AOR washouts, the nearly 40-minute collection of the Bee Gees' earliest hits will suffice in spades. At their (perhaps, in hindsight) surprising best, the threesome, along with capable if generally unremarkable rhythm section members Melouney and Colin Peterson, created a slew of tender, affecting, and quite lovely hits. While the Stones/proto-metal crowd of the time probably thought them unbearably wimpy, their songwriting acumen, combined with their harmonies, fine production by Robert Stigwood, and ace orchestral/band arrangements by Bill Shephard, holds up astonishingly well. For all that the band clearly was often following the lead of the more elaborate Beatles songs of the same time – consider the watery piano line opening "Words" as one example of many – the Bee Gees didn't so much ape as they did come up with their own flavor. Considering that everyone from Catherine ("Every Christian Lion Hearted Man Will Show You") and Jimmy Somerville ("To Love Somebody") to Low ("I Started a Joke") and Jose Feliciano ("I've Gotta Get a Message to You") has covered something from this collection is testimony to the songs' continuing influence. Other times the connections to the future are subtler but still present – "I Can't See Nobody," sonically and lyrically, has the same deep blue/string-backed feeling as Verve's "History." Sometimes the line between emotion and deep schmaltz is pretty fine, admittedly. However, when Robin's lead vocal on "I Started a Joke" hits the high notes while his brothers add soft backup as the music swells, it's just one example of many why the Bee Gees deserved their long overdue induction into the Rock & Roll Hall of Fame.
~ Ned Raggett, All Music

***************

Bee Gees - Best Of Bee Gees, Vol.1 (1969) {1987, Reissue} * RE-UP *

Bee Gees - Best Of Bee Gees, Vol.1 (1969) {1987, Reissue} * RE-UP *

Track List:

01. Holiday [0:02:56.35]
02. I've gotta get a message to you [0:02:59.73]
03. I can't see nobody [0:03:47.65]
04. Words [0:03:18.50]
05. I started a joke [0:03:10.00]
06. Tomorrow tomorrow [0:03:58.02]
07. First of May [0:02:51.25]
08. World [0:03:13.43]
09. Massachusetts [0:02:26.22]
10. To love somebody [0:03:03.08]
11. Every christian lion hearted man will show you [0:03:40.02]
12. New York mining disaster 1941 [0:02:08.56]

Exact Audio Copy V0.99 prebeta 4 from 23. January 2008

EAC extraction logfile from 7. March 2016, 21:02

Bee Gees / Best Of Bee Gees (Vol.1)

Used drive : PLEXTOR DVDR PX-750A Adapter: 0 ID: 2

Read mode : Secure
Utilize accurate stream : Yes
Defeat audio cache : Yes
Make use of C2 pointers : No

Read offset correction : 102
Overread into Lead-In and Lead-Out : No
Fill up missing offset samples with silence : Yes
Delete leading and trailing silent blocks : No
Null samples used in CRC calculations : No
Used interface : Installed external ASPI interface

Used output format : Internal WAV Routines
Sample format : 44.100 Hz; 16 Bit; Stereo


TOC of the extracted CD

Track | Start | Length | Start sector | End sector
––––––––––––––––––––––––––––-
1 | 0:00.32 | 2:56.35 | 32 | 13266
2 | 2:56.67 | 2:59.73 | 13267 | 26764
3 | 5:56.65 | 3:47.65 | 26765 | 43854
4 | 9:44.55 | 3:18.50 | 43855 | 58754
5 | 13:03.30 | 3:10.00 | 58755 | 73004
6 | 16:13.30 | 3:58.02 | 73005 | 90856
7 | 20:11.32 | 2:51.25 | 90857 | 103706
8 | 23:02.57 | 3:13.43 | 103707 | 118224
9 | 26:16.25 | 2:26.22 | 118225 | 129196
10 | 28:42.47 | 3:03.08 | 129197 | 142929
11 | 31:45.55 | 3:40.02 | 142930 | 159431
12 | 35:25.57 | 2:08.56 | 159432 | 169087


Range status and errors

Selected range

Filename M:\0\Bee Gees - 1969 - Best Of Bee Gees (Vol.1).wav

Peak level 88.2 %
Range quality 100.0 %
Test CRC 2C22768A
Copy CRC 2C22768A
Copy OK

No errors occurred

End of status report

foobar2000 1.2.6 / Dynamic Range Meter 1.1.1
log date: 2016-03-11 20:27:29

––––––––––––––––––––––––––––––––––––––––
Analyzed: Bee Gees / Best Of Bee Gees (Vol.1)
––––––––––––––––––––––––––––––––––––––––

DR Peak RMS Duration Track
––––––––––––––––––––––––––––––––––––––––
DR11 -3.09 dB -16.32 dB 2:56 01-Holiday
DR11 -1.32 dB -14.64 dB 3:00 02-I've Gotta Get A Message To You
DR11 -1.78 dB -15.91 dB 3:48 03-I Can't See Nobody
DR11 -1.72 dB -17.91 dB 3:19 04-Words
DR12 -1.09 dB -16.27 dB 3:10 05-I Started a Joke
DR11 -2.96 dB -15.89 dB 3:58 06-Tomorrow, Tomorrow
DR12 -1.91 dB -18.47 dB 2:51 07-First of May
DR10 -1.55 dB -15.12 dB 3:14 08-World
DR11 -1.34 dB -14.72 dB 2:26 09-Massachusetts
DR11 -1.47 dB -15.90 dB 3:03 10-To Love Somebody
DR12 -1.69 dB -15.75 dB 3:40 11-Every Christian Lion Hearted Man Will Show You
DR12 -1.63 dB -17.85 dB 2:08 12-New York Mining Disaster 1941
––––––––––––––––––––––––––––––––––––––––

Number of tracks: 12
Official DR value: DR11

Samplerate: 44100 Hz
Channels: 2
Bits per sample: 16
Bitrate: 767 kbps
Codec: FLAC
================================================================================

[CUETools log; Date: 11.03.2016 20:33:41; Version: 2.1.5]
Pregap length 00:00:32.
[CTDB TOCID: MRuAgA20Ruz5PG6N9FgOpP8OyR4-] disk not present in database.
[AccurateRip ID: 00113a7b-00a0815e-b508ce0c] disk not present in database.

Track Peak [ CRC32 ] [W/O NULL] [ LOG ]
– 88,2 [09B51C28] [6E3D127B] [2C22768A]
01 70,0 [75400762] [1BC8D3D8]
02 85,8 [6AC55B2E] [835E186A]
03 81,4 [AF840E7E] [9AE84833]
04 81,9 [2F290508] [62813398]
05 88,2 [D9142E60] [81D95FBA]
06 71,1 [5A26891C] [B388B016]
07 80,2 [B1DE5950] [CAACA245]
08 83,6 [924C0C46] [FA799028]
09 85,6 [DA2BFDCB] [2D833465]
10 84,4 [B56A9A2D] [8439E42A]
11 82,3 [B0AA706A] [D3611199]
12 82,8 [52F42853] [99BD0284]

Bee Gees - Best Of Bee Gees, Vol.1 (1969) {1987, Reissue} * RE-UP *

All thanks go to geometro

>>> Bee Gees in my Blog <<<

Download from icerbox.com: