Subcategories

Bee Gees - Odessa (1969) [West Germany 1st Press, 1985]

Posted By: Andi_Deris
Bee Gees - Odessa (1969) [West Germany 1st Press, 1985]

Bee Gees - Odessa (1969) [West Germany 1st Press, 1985]
EAC Rip | FLAC: Image+Cue+Log | 379 Mb | MP3 CBR 320 kbps | 159 Mb | Scans | 108 Mb | Time: 01:02:37
Robert Stigwood Group Ltd./RSO | 825 451-2 YH
Psychedelic Pop/Rock, Baroque Pop

"Odessa" is a 1969 album by the Bee Gees. Regarded as the most significant of the band's Sixties albums, it was released as a double vinyl record initially in an opulent red flocked cover with gold lettering. Having released three highly successful albums and having an unbroken three-year run of hit singles, the Bee Gees could have just produced another version of Idea. Instead, they took the brave move of releasing a concept album. Odessa takes the listener on an Odyssey, a voyage around the world and through history, and in doing so proved the Gibb Brothers to be the most progressive and innovative recording act of the time.

Bee Gees - Odessa (1969) [West Germany 1st Press, 1985]




Bee Gees - Odessa (1969) [West Germany 1st Press, 1985]


Track Listing

01. Odessa (City On The Black Sea) (07:36)
02. You'll Never See My Face Again (04:19)
03. Black Diamond (03:31)
04. Marley Purt Drive (04:28)
05. Edison (03:07)
06. Melody Fair (03:51)
07. Suddenly (02:29)
08. Whisper Whisper (03:28)
09. Lamplight (04:48)
10. Sound Of Love (03:29)
11. Give Your Best (03:30)
12. Seven Seas Symphony (04:13)
13. I Laugh In Your Face (04:11)
14. Never Say Never Again (03:28)
15. First Of May (02:51)
16. The British Opera (03:18)

Produced by Robert Stigwood and The Bee Gees

Musicians

• Barry Gibb - lead, harmony and background vocals; rhythm guitar
• Robin Gibb - lead, harmony and background vocals; organ, piano and Mellotron
• Maurice Gibb - harmony and background vocals; rhythm and bass guitars; piano and Mellotron; lead vocals on "Suddenly"
• Vince Melouney - lead guitar on "Whisper, Whisper", "Marley Purt Drive", "Give Your Best", "Sound of Love", and "Edison"
• Colin Petersen - drums

*****
• Bill Keith - banjo on "Marley Purt Drive" and "Give Your Best"
• Tex Logan - fiddle on "Give Your Best"
• Paul Buckmaster - cello on "Odessa"

Exact Audio Copy V1.0 beta 3 from 29. August 2011

EAC extraction logfile from 4. July 2013, 18:17

Bee Gees / Odessa

Used drive : PIONEER DVD-RW DVR-112D Adapter: 2 ID: 1

Read mode : Secure
Utilize accurate stream : Yes
Defeat audio cache : Yes
Make use of C2 pointers : No

Read offset correction : 48
Overread into Lead-In and Lead-Out : No
Fill up missing offset samples with silence : Yes
Delete leading and trailing silent blocks : No
Null samples used in CRC calculations : Yes
Used interface : Installed external ASPI interface

Used output format : User Defined Encoder
Selected bitrate : 1024 kBit/s
Quality : High
Add ID3 tag : No
Command line compressor : C:\Program Files (x86)\Exact Audio Copy\Flac\flac.exe
Additional command line options : -8 -V -T "Date=%year%" -T "Genre=%genre%" -T "COMMENT=ripped by bvstudio®" %source%


TOC of the extracted CD

Track | Start | Length | Start sector | End sector
––––––––––––––––––––––––––––-
1 | 0:00.33 | 7:36.07 | 33 | 34239
2 | 7:36.40 | 4:19.18 | 34240 | 53682
3 | 11:55.58 | 3:30.70 | 53683 | 69502
4 | 15:26.53 | 4:27.70 | 69503 | 89597
5 | 19:54.48 | 3:07.27 | 89598 | 103649
6 | 23:02.00 | 3:50.73 | 103650 | 120972
7 | 26:52.73 | 2:28.47 | 120973 | 132119
8 | 29:21.45 | 3:28.08 | 132120 | 147727
9 | 32:49.53 | 4:48.02 | 147728 | 169329
10 | 37:37.55 | 3:28.45 | 169330 | 184974
11 | 41:06.25 | 3:29.40 | 184975 | 200689
12 | 44:35.65 | 4:13.05 | 200690 | 219669
13 | 48:48.70 | 4:11.05 | 219670 | 238499
14 | 53:00.00 | 3:27.70 | 238500 | 254094
15 | 56:27.70 | 2:50.50 | 254095 | 266894
16 | 59:18.45 | 3:18.03 | 266895 | 281747


Range status and errors

Selected range

Filename F:\Bee Gees, Robin, Barry, Andy\Bee Gees\1969 - Odessa (1985 - RSO - 825 451-2 YH)\Bee Gees - Odessa.wav

Peak level 91.7 %
Extraction speed 7.7 X
Range quality 100.0 %
Test CRC D6967750
Copy CRC D6967750
Copy OK

No errors occurred


AccurateRip summary

Track 1 accurately ripped (confidence 4) [1D5FA305] (AR v2)
Track 2 accurately ripped (confidence 4) [7E9ADF98] (AR v2)
Track 3 accurately ripped (confidence 4) [66078617] (AR v2)
Track 4 accurately ripped (confidence 4) [799B8C45] (AR v2)
Track 5 accurately ripped (confidence 4) [EEF07288] (AR v2)
Track 6 accurately ripped (confidence 4) [360911AA] (AR v2)
Track 7 accurately ripped (confidence 4) [2A0DC439] (AR v2)
Track 8 accurately ripped (confidence 4) [968E4CBC] (AR v2)
Track 9 accurately ripped (confidence 4) [1EE21A9B] (AR v2)
Track 10 accurately ripped (confidence 4) [445576B8] (AR v2)
Track 11 accurately ripped (confidence 3) [ED5E8FE2] (AR v2)
Track 12 accurately ripped (confidence 3) [CF428591] (AR v2)
Track 13 accurately ripped (confidence 4) [80A033E3] (AR v2)
Track 14 accurately ripped (confidence 4) [5733E9D3] (AR v2)
Track 15 accurately ripped (confidence 4) [B9ED425A] (AR v2)
Track 16 accurately ripped (confidence 4) [2C769545] (AR v2)

All tracks accurately ripped

End of status report

–– CUETools DB Plugin V2.1.5

[CTDB TOCID: HfpQPFz9XrONmhRGLOs.TfJy..M-] found
Submit result: HfpQPFz9XrONmhRGLOs.TfJy..M- has been confirmed
Track | CTDB Status
1 | (4/4) Accurately ripped
2 | (4/4) Accurately ripped
3 | (4/4) Accurately ripped
4 | (4/4) Accurately ripped
5 | (4/4) Accurately ripped
6 | (4/4) Accurately ripped
7 | (4/4) Accurately ripped
8 | (4/4) Accurately ripped
9 | (4/4) Accurately ripped
10 | (4/4) Accurately ripped
11 | (4/4) Accurately ripped
12 | (4/4) Accurately ripped
13 | (4/4) Accurately ripped
14 | (4/4) Accurately ripped
15 | (4/4) Accurately ripped
16 | (3/4) Accurately ripped, or (1/4) differs in 30 samples @00:00:33-00:00:34,00:00:40-00:00:50


==== Log checksum 3A03BE748014409947F59449CC9DB7E2B458C9306DA618E1EDCA4F98F5DFA1E8 ====


Many thanks to the original uploader: bvstudio