Subcategories

Beegie Adair - In A Sentimental Mood: Romantic Songs Of Duke Ellington (2008)

Posted By: tirexiss
Beegie Adair - In A Sentimental Mood: Romantic Songs Of Duke Ellington (2008)

Beegie Adair - In A Sentimental Mood: Romantic Songs Of Duke Ellington (2008)
EAC | FLAC (tracks+.cue, log) | Covers Included | 44:27 | 261 MB
Genre: Mainstream Jazz | Label: Green Hill Productions | Catalog: 555632

Jazz pianist Beegie Adair's series of "romantic songs" songbook albums, devoted to the major songwriters of the interwar era (there are also titles for George Gershwin, Hoagy Carmichael, Irving Berlin, and Richard Rodgers), tend to have photographs of affectionate couples on the covers, as does this one, featuring the music of Duke Ellington. That's a signal that the recordings are intended to accompany the listeners on their own romantic adventures, as much as express the feelings of the songwriters. (Indeed, the "romantic" designation is sometimes questionable: are "It Don't Mean a Thing [If It Ain't Got That Swing]" or "Take the 'A' Train" romantic songs?) Adair, leading a piano trio, is interested in playing largely faithful versions of the tunes, adding her own modest jazz improvisations here and there, as if she were appearing in a nice restaurant or a cocktail lounge, the lights low and the focus on the patrons, not the performer. Even when she is addressing the work of a major jazz figure like Ellington, she maintains this same approach, which means this album fits in with its brothers, aimed more at a casual listenership than hardcore (or even mainstream) jazz fans.

Beegie Adair - In A Sentimental Mood: Romantic Songs Of Duke Ellington (2008)

Track List:

01. Dont Get Around Much Anymore (4:32)
02. In A Sentimental Mood (4:29)
03. Satin Doll (3:48)
04. Solitude (3:27)
05. Caravan (3:38)
06. Sophisticated Lady (4:19)
07. Im Beginning To See The Light (3:39)
08. Mood Indigo (4:08)
09. It Dont Mean A Thing (If It Aint Got That Swing) (2:43)
10. Day Dream (3:27)
11. Take The A Train (3:09)
12. All Too Soon (3:09)

Personnel:
Beegie Adair - piano
Roger Spencer - bass
Chris Brown - drums

Exact Audio Copy V1.0 beta 3 from 29. August 2011

EAC extraction logfile from 12. August 2012, 14:49

Beegie Adair / In a Sentimental Mood

Used drive : TSSTcorpDVD+-RW TS-H653B Adapter: 2 ID: 0

Read mode : Secure
Utilize accurate stream : Yes
Defeat audio cache : Yes
Make use of C2 pointers : No

Read offset correction : 6
Overread into Lead-In and Lead-Out : No
Fill up missing offset samples with silence : Yes
Delete leading and trailing silent blocks : No
Null samples used in CRC calculations : Yes
Used interface : Installed external ASPI interface
Gap handling : Appended to previous track

Used output format : User Defined Encoder
Selected bitrate : 1024 kBit/s
Quality : High
Add ID3 tag : No
Command line compressor : C:\Program Files (x86)\Exact Audio Copy\Flac\flac.exe
Additional command line options : -8 -V -T "ARTIST=%artist%" -T "TITLE=%title%" -T "ALBUM=%albumtitle%" -T "DATE=%year%" -T "TRACKNUMBER=%tracknr%" -T "GENRE=%genre%" -T "PERFORMER=%albuminterpret%" -T "COMPOSER=%composer%" %haslyrics%–tag-from-file=LYRICS="%lyricsfile%"%haslyrics% -T "ALBUMARTIST=%albumartist%" -T "DISCNUMBER=%cdnumber%" -T "TOTALDISCS=%totalcds%" -T "TOTALTRACKS=%numtracks%" -T "COMMENT=%comment%" %source% -o %dest%


TOC of the extracted CD

Track | Start | Length | Start sector | End sector
––––––––––––––––––––––––––––-
1 | 0:00.00 | 4:32.06 | 0 | 20405
2 | 4:32.06 | 4:28.45 | 20406 | 40550
3 | 9:00.51 | 3:47.38 | 40551 | 57613
4 | 12:48.14 | 3:27.20 | 57614 | 73158
5 | 16:15.34 | 3:38.03 | 73159 | 89511
6 | 19:53.37 | 4:18.67 | 89512 | 108928
7 | 24:12.29 | 3:39.03 | 108929 | 125356
8 | 27:51.32 | 4:07.40 | 125357 | 143921
9 | 31:58.72 | 2:42.53 | 143922 | 156124
10 | 34:41.50 | 3:26.46 | 156125 | 171620
11 | 38:08.21 | 3:09.17 | 171621 | 185812
12 | 41:17.38 | 3:09.03 | 185813 | 199990


Track 1

Filename C:\Beegie Adair - 2008 - In a Sentimental Mood\01 - Don't Get Around Much Anymore.wav

Pre-gap length 0:00:02.00

Peak level 89.9 %
Extraction speed 4.4 X
Track quality 100.0 %
Test CRC F7A9E0BB
Copy CRC F7A9E0BB
Accurately ripped (confidence 2) [9A8604B3] (AR v1)
Copy OK

Track 2

Filename C:\Beegie Adair - 2008 - In a Sentimental Mood\02 - In a Sentimental Mood.wav

Pre-gap length 0:00:02.46

Peak level 94.9 %
Extraction speed 4.1 X
Track quality 99.9 %
Test CRC 482F94EA
Copy CRC 482F94EA
Accurately ripped (confidence 2) [BBE8560C] (AR v1)
Copy OK

Track 3

Filename C:\Beegie Adair - 2008 - In a Sentimental Mood\03 - Satin Doll.wav

Pre-gap length 0:00:02.46

Peak level 94.5 %
Extraction speed 5.2 X
Track quality 100.0 %
Test CRC 4083832B
Copy CRC 4083832B
Accurately ripped (confidence 2) [C4D2EA5E] (AR v1)
Copy OK

Track 4

Filename C:\Beegie Adair - 2008 - In a Sentimental Mood\04 - Solitude.wav

Pre-gap length 0:00:02.46

Peak level 95.6 %
Extraction speed 5.4 X
Track quality 100.0 %
Test CRC 289830A0
Copy CRC 289830A0
Accurately ripped (confidence 2) [A8B8E6F7] (AR v1)
Copy OK

Track 5

Filename C:\Beegie Adair - 2008 - In a Sentimental Mood\05 - Caravan.wav

Pre-gap length 0:00:02.46

Peak level 93.6 %
Extraction speed 5.8 X
Track quality 100.0 %
Test CRC BE8A8139
Copy CRC BE8A8139
Accurately ripped (confidence 2) [AD99D84A] (AR v1)
Copy OK

Track 6

Filename C:\Beegie Adair - 2008 - In a Sentimental Mood\06 - Sophisticated Lady.wav

Pre-gap length 0:00:02.46

Peak level 91.8 %
Extraction speed 6.3 X
Track quality 100.0 %
Test CRC B420F3B8
Copy CRC B420F3B8
Accurately ripped (confidence 2) [643B2D3D] (AR v1)
Copy OK

Track 7

Filename C:\Beegie Adair - 2008 - In a Sentimental Mood\07 - I'm Beginning to See the Light.wav

Pre-gap length 0:00:03.00

Peak level 95.7 %
Extraction speed 6.4 X
Track quality 100.0 %
Test CRC 04592DEE
Copy CRC 04592DEE
Accurately ripped (confidence 2) [558837EA] (AR v1)
Copy OK

Track 8

Filename C:\Beegie Adair - 2008 - In a Sentimental Mood\08 - Mood Indigo.wav

Pre-gap length 0:00:02.46

Peak level 93.5 %
Extraction speed 6.8 X
Track quality 100.0 %
Test CRC E2CF9844
Copy CRC E2CF9844
Accurately ripped (confidence 2) [2DCB7406] (AR v1)
Copy OK

Track 9

Filename C:\Beegie Adair - 2008 - In a Sentimental Mood\09 - It Don't Mean a Thing (If It Ain't Got That Swing).wav

Pre-gap length 0:00:02.46

Peak level 89.6 %
Extraction speed 6.5 X
Track quality 100.0 %
Test CRC 5F8E798E
Copy CRC 5F8E798E
Accurately ripped (confidence 2) [BD8EE960] (AR v1)
Copy OK

Track 10

Filename C:\Beegie Adair - 2008 - In a Sentimental Mood\10 - Day Dream.wav

Pre-gap length 0:00:02.46

Peak level 95.2 %
Extraction speed 7.0 X
Track quality 100.0 %
Test CRC 0BC71061
Copy CRC 0BC71061
Accurately ripped (confidence 2) [E088DF77] (AR v1)
Copy OK

Track 11

Filename C:\Beegie Adair - 2008 - In a Sentimental Mood\11 - Take the A Train.wav

Pre-gap length 0:00:02.46

Peak level 94.7 %
Extraction speed 4.5 X
Track quality 99.8 %
Test CRC 2E3510AF
Copy CRC 2E3510AF
Accurately ripped (confidence 2) [5BA19414] (AR v1)
Copy OK

Track 12

Filename C:\Beegie Adair - 2008 - In a Sentimental Mood\12 - All Too Soon.wav

Pre-gap length 0:00:02.46

Peak level 94.9 %
Extraction speed 3.9 X
Track quality 99.8 %
Test CRC 27566979
Copy CRC 27566979
Accurately ripped (confidence 2) [7BCA43F4] (AR v1)
Copy OK


All tracks accurately ripped

No errors occurred

End of status report

==== Log checksum DD519061F89A5E0DDA5FE9ACE3E503140BA37193BDFC3DAD4D7FFF811F592B97 ====

[CUETools log; Date: 31.01.2017 9:46:23; Version: 2.1.5]
[CTDB TOCID: Hwf7LhgHiWKHqAfaVSuFtbLbOkA-] found.
Track | CTDB Status
1 | (12/12) Accurately ripped
2 | (12/12) Accurately ripped
3 | (12/12) Accurately ripped
4 | (12/12) Accurately ripped
5 | (11/12) Accurately ripped
6 | (12/12) Accurately ripped
7 | (12/12) Accurately ripped
8 | (12/12) Accurately ripped
9 | (12/12) Accurately ripped
10 | (12/12) Accurately ripped
11 | (12/12) Accurately ripped
12 | (12/12) Accurately ripped
[AccurateRip ID: 0014f348-00c0cc1e-aa0a6a0c] found.
Track [ CRC | V2 ] Status
01 [9a8604b3|2b8f9a3f] (02+03/13) Accurately ripped
02 [bbe8560c|4b7c23e2] (02+03/13) Accurately ripped
03 [c4d2ea5e|028ecddc] (02+03/13) Accurately ripped
04 [a8b8e6f7|aa07f934] (02+03/13) Accurately ripped
05 [ad99d84a|b683a84a] (02+03/13) Accurately ripped
06 [643b2d3d|bc98e328] (02+03/13) Accurately ripped
07 [558837ea|fe15d92c] (02+03/13) Accurately ripped
08 [2dcb7406|b58ae709] (02+03/13) Accurately ripped
09 [bd8ee960|909433f5] (02+03/13) Accurately ripped
10 [e088df77|d6fa82fa] (02+03/13) Accurately ripped
11 [5ba19414|c5c4e307] (02+03/13) Accurately ripped
12 [7bca43f4|d4ddd56a] (02+03/13) Accurately ripped
Offsetted by -652:
01 [9296d116] (04/13) Accurately ripped
02 [7662fb5c] (04/13) Accurately ripped
03 [5c02bcd6] (04/13) Accurately ripped
04 [b196d2a7] (04/13) Accurately ripped
05 [09a386a6] (04/13) Accurately ripped
06 [4fa70cb9] (04/13) Accurately ripped
07 [7d639842] (04/13) Accurately ripped
08 [4b55bcb6] (04/13) Accurately ripped
09 [d16cfe14] (04/13) Accurately ripped
10 [9e86180b] (04/13) Accurately ripped
11 [2e35f8c0] (04/13) Accurately ripped
12 [cf958048] (04/13) Accurately ripped

Track Peak [ CRC32 ] [W/O NULL] [ LOG ]
– 95,7 [687C4E77] [5CB20EBB]
01 89,9 [F7A9E0BB] [F5EFCF6E] CRC32
02 94,9 [482F94EA] [F2661A4C] CRC32
03 94,5 [4083832B] [2E3CD06B] CRC32
04 95,6 [289830A0] [4B2A0E0A] CRC32
05 93,6 [BE8A8139] [2D6FEEDC] CRC32
06 91,8 [B420F3B8] [A9ABF71F] CRC32
07 95,7 [04592DEE] [565A3789] CRC32
08 93,5 [E2CF9844] [E19130C0] CRC32
09 89,6 [5F8E798E] [A8755E95] CRC32
10 95,2 [0BC71061] [B326ACBB] CRC32
11 94,7 [2E3510AF] [25891E37] CRC32
12 94,9 [27566979] [78E56F22] CRC32

Thanks to the Original ripper (unknown)!

Download: