Subcategories

Beenie Man - Cool Cool Rider: The Roots Of A Dancehall Don (2004)

Posted By: popsakov
Beenie Man - Cool Cool Rider: The Roots Of A Dancehall Don (2004)

Beenie Man - Cool Cool Rider: The Roots Of A Dancehall Don (2004)
EAC Rip | WavPack (Img) + Cue + Log ~ 501 Mb | MP3 CBR320 ~ 214 Mb
Scans Included (JPG, 400 dpi) | RAR 5% Recovery
Reggae, Dancehall | Trojan Records / Sanctuary Records #TJACD187

Anthony Moses Davis, better known by his stage name Beenie Man, is a Jamaican reggae and dancehall singer. He is referred to as the world's "King of Dancehall". One of Jamaica's biggest exports, Beenie Man's recording career stretches back to 1981, although it was in the sound systems where he later made his mark. The witty toaster began his true ascent to stardom in the early '90s, and by 1994, his reputation couldn't be beat.

Taking Beenie’s original 1992 album Cool Cool Rider and adding a heap of tracks from that era, this Trojan set is a highly desirable disc for the dancehall singer’s most hardcore fans. It’s likely they’ve encountered these tracks before, although on inferior sets with poor sound quality. The source material is still rough and recorded on the cheap, but Trojan does what they can as crucial cuts like “No Mama No Cry,” “Black Liberty,” and the title track punch out of the speakers like they did on their original Jamaican 45s. Newcomers should be warned that Beenie was more aggressive and less tuneful than he would become two years later when songs like “Slam” and “Romie” came along, and you certainly shouldn’t expect anything as smooth as “Girls Dem Sugar” since this material is much more frantic. A couple tracks from a decade earlier, when a ten-year-old Beenie scored a hit with “Too Fussy,” would have made this the ultimate early set, but it’s a small complaint seeing as how Trojan has liberated this rare material from bootleg status.

***************

Beenie Man - Cool Cool Rider: The Roots Of A Dancehall Don (2004)

Track List:

01. No Mama No Cry [3:52]
02. Cool Cool Rider [3:31]
03. Three Against War [3:49]
04. D J King [3:28]
05. Tata Fool [3:35]
06. Black Liberty [3:37]
07. Be My Lady [3:26]
08. Love In-A Mi Heart [4:01]
09. Bad Man [3:39]
10. Boney Punany [3:19]
11. Miss Angela [3:49]
12. Laba Laba Mouth [4:30]
13. What Those Guys Are For [3:51]
14. Licki Licki Girl [3:49]
15. Get Mi Kinky [3:47]
16. Don't Take Abortion [3:51]
17. Good Times [3:58]
18. No Guy Test [3:38]
19. Matie [3:44]
20. Do The Butterfly [3:22]
21. Lift It Up [3:43]

Exact Audio Copy V1.3 from 2. September 2016

EAC extraction logfile from 20. August 2017, 20:15

Beenie Man / Cool Cool Rider

Used drive : TSSTcorpCDDVDW SH-224DB Adapter: 1 ID: 0

Read mode : Secure
Utilize accurate stream : Yes
Defeat audio cache : Yes
Make use of C2 pointers : No

Read offset correction : 6
Overread into Lead-In and Lead-Out : No
Fill up missing offset samples with silence : Yes
Delete leading and trailing silent blocks : No
Null samples used in CRC calculations : Yes
Used interface : Native Win32 interface for Win NT & 2000

Used output format : User Defined Encoder
Selected bitrate : 1024 kBit/s
Quality : High
Add ID3 tag : No
Command line compressor : C:\Program Files (x86)\Exact Audio Copy\wavpack.exe
Additional command line options : -hm %source% %dest%


TOC of the extracted CD

Track | Start | Length | Start sector | End sector
––––––––––––––––––––––––––––-
1 | 0:00.00 | 3:52.04 | 0 | 17403
2 | 3:52.04 | 3:30.50 | 17404 | 33203
3 | 7:22.54 | 3:49.12 | 33204 | 50390
4 | 11:11.66 | 3:28.31 | 50391 | 66021
5 | 14:40.22 | 3:35.37 | 66022 | 82183
6 | 18:15.59 | 3:37.08 | 82184 | 98466
7 | 21:52.67 | 3:26.19 | 98467 | 113935
8 | 25:19.11 | 4:00.73 | 113936 | 132008
9 | 29:20.09 | 3:38.74 | 132009 | 148432
10 | 32:59.08 | 3:19.10 | 148433 | 163367
11 | 36:18.18 | 3:48.40 | 163368 | 180507
12 | 40:06.58 | 4:30.22 | 180508 | 200779
13 | 44:37.05 | 3:50.47 | 200780 | 218076
14 | 48:27.52 | 3:49.13 | 218077 | 235264
15 | 52:16.65 | 3:46.38 | 235265 | 252252
16 | 56:03.28 | 3:51.33 | 252253 | 269610
17 | 59:54.61 | 3:57.57 | 269611 | 287442
18 | 63:52.43 | 3:37.67 | 287443 | 303784
19 | 67:30.35 | 3:44.03 | 303785 | 320587
20 | 71:14.38 | 3:22.05 | 320588 | 335742
21 | 74:36.43 | 3:42.70 | 335743 | 352462


Range status and errors

Selected range

Filename G:\iso\Beenie Man - Cool Cool Rider\Beenie Man - Cool Cool Rider.wav

Peak level 100.0 %
Extraction speed 2.3 X
Range quality 100.0 %
Test CRC 1B0BA7E5
Copy CRC 1B0BA7E5
Copy OK

No errors occurred


AccurateRip summary

Track 1 accurately ripped (confidence 1) [09FB29EC] (AR v2)
Track 2 accurately ripped (confidence 1) [55454F9E] (AR v2)
Track 3 accurately ripped (confidence 1) [AD7010A2] (AR v2)
Track 4 accurately ripped (confidence 1) [E07F95EE] (AR v2)
Track 5 accurately ripped (confidence 1) [2CFC42E0] (AR v2)
Track 6 accurately ripped (confidence 1) [076CA4EC] (AR v2)
Track 7 accurately ripped (confidence 1) [06A193CA] (AR v2)
Track 8 accurately ripped (confidence 1) [E2F0FC46] (AR v2)
Track 9 accurately ripped (confidence 1) [005BD6CD] (AR v2)
Track 10 accurately ripped (confidence 1) [25AC7159] (AR v2)
Track 11 accurately ripped (confidence 1) [0438A6A4] (AR v2)
Track 12 accurately ripped (confidence 1) [77E4BED3] (AR v2)
Track 13 accurately ripped (confidence 1) [EE088BDC] (AR v2)
Track 14 accurately ripped (confidence 1) [9B6DB0EB] (AR v2)
Track 15 accurately ripped (confidence 1) [47B25E5D] (AR v2)
Track 16 accurately ripped (confidence 1) [AB1368CE] (AR v2)
Track 17 accurately ripped (confidence 1) [3C519D68] (AR v2)
Track 18 accurately ripped (confidence 1) [81071304] (AR v2)
Track 19 accurately ripped (confidence 1) [E024668A] (AR v2)
Track 20 accurately ripped (confidence 1) [477FC7C1] (AR v2)
Track 21 accurately ripped (confidence 1) [2DEA5407] (AR v2)

All tracks accurately ripped

End of status report

–– CUETools DB Plugin V2.1.6

[CTDB TOCID: QIJ3ngRZpbP9fa7XCMwx.sMsgHM-] found
Submit result: QIJ3ngRZpbP9fa7XCMwx.sMsgHM- has been confirmed
Track | CTDB Status
1 | (2/2) Accurately ripped
2 | (2/2) Accurately ripped
3 | (2/2) Accurately ripped
4 | (2/2) Accurately ripped
5 | (2/2) Accurately ripped
6 | (2/2) Accurately ripped
7 | (2/2) Accurately ripped
8 | (2/2) Accurately ripped
9 | (2/2) Accurately ripped
10 | (2/2) Accurately ripped
11 | (2/2) Accurately ripped
12 | (2/2) Accurately ripped
13 | (2/2) Accurately ripped
14 | (2/2) Accurately ripped
15 | (2/2) Accurately ripped
16 | (2/2) Accurately ripped
17 | (2/2) Accurately ripped
18 | (2/2) Accurately ripped
19 | (2/2) Accurately ripped
20 | (2/2) Accurately ripped
21 | (2/2) Accurately ripped


==== Log checksum B0209F328C21C21466616F00911D4DCB4E177C3EB90824D3EAD08C35625A320A ====

foobar2000 1.3.16 / Dynamic Range Meter 1.1.1
log date: 2018-05-19 01:17:13

––––––––––––––––––––––––––––––––––––––––
Analyzed: Beenie Man / Cool Cool Rider
––––––––––––––––––––––––––––––––––––––––

DR Peak RMS Duration Track
––––––––––––––––––––––––––––––––––––––––
DR7 0.00 dB -8.98 dB 3:52 01-No Mama No Cry
DR7 -1.50 dB -10.06 dB 3:31 02-Cool Cool Rider
DR10 0.00 dB -11.68 dB 3:49 03-Three Against War
DR7 -1.50 dB -9.50 dB 3:28 04-D J King
DR10 0.00 dB -11.43 dB 3:35 05-Tata Fool
DR8 0.00 dB -11.04 dB 3:37 06-Black Liberty
DR8 0.00 dB -8.98 dB 3:26 07-Be My Lady
DR7 -1.00 dB -9.47 dB 4:01 08-Love In-A Mi Heart
DR7 -1.00 dB -9.95 dB 3:39 09-Bad Man
DR6 -1.00 dB -8.44 dB 3:19 10-Boney Punany
DR7 0.00 dB -8.39 dB 3:49 11-Miss Angela
DR8 -1.00 dB -10.24 dB 4:30 12-Laba Laba Mouth
DR9 -1.01 dB -11.55 dB 3:51 13-What Those Guys Are For
DR7 -1.00 dB -8.67 dB 3:49 14-Licki Licki Girl
DR7 -2.00 dB -10.43 dB 3:47 15-Get Mi Kinky
DR6 -1.24 dB -8.25 dB 3:51 16-Don't Take Abortion
DR8 -1.50 dB -10.99 dB 3:58 17-Good Times
DR10 0.00 dB -11.88 dB 3:38 18-No Guy Test
DR7 -2.50 dB -10.53 dB 3:44 19-Matie
DR8 0.00 dB -10.01 dB 3:22 20-Do The Butterfly
DR6 -1.00 dB -7.78 dB 3:43 21-Lift It Up
––––––––––––––––––––––––––––––––––––––––

Number of tracks: 21
Official DR value: DR8

Samplerate: 44100 Hz
Channels: 2
Bits per sample: 16
Bitrate: 807 kbps
Codec: WavPack
================================================================================

[CUETools log; Date: 19.05.2018 1:17:18; Version: 2.1.6]
[CTDB TOCID: QIJ3ngRZpbP9fa7XCMwx.sMsgHM-] found.
Track | CTDB Status
1 | (4/4) Accurately ripped
2 | (4/4) Accurately ripped
3 | (4/4) Accurately ripped
4 | (4/4) Accurately ripped
5 | (4/4) Accurately ripped
6 | (4/4) Accurately ripped
7 | (4/4) Accurately ripped
8 | (4/4) Accurately ripped
9 | (4/4) Accurately ripped
10 | (4/4) Accurately ripped
11 | (4/4) Accurately ripped
12 | (4/4) Accurately ripped
13 | (4/4) Accurately ripped
14 | (4/4) Accurately ripped
15 | (4/4) Accurately ripped
16 | (4/4) Accurately ripped
17 | (4/4) Accurately ripped
18 | (4/4) Accurately ripped
19 | (4/4) Accurately ripped
20 | (4/4) Accurately ripped
21 | (4/4) Accurately ripped
[AccurateRip ID: 003aedae-0389e869-43125b15] found.
Track [ CRC | V2 ] Status
01 [5db35b6f|09fb29ec] (0+1/1) Accurately ripped
02 [5a6ce93f|55454f9e] (0+1/1) Accurately ripped
03 [e008b16d|ad7010a2] (0+1/1) Accurately ripped
04 [177ae30b|e07f95ee] (0+1/1) Accurately ripped
05 [ecfc77f1|2cfc42e0] (0+1/1) Accurately ripped
06 [967ee826|076ca4ec] (0+1/1) Accurately ripped
07 [6b40c6f1|06a193ca] (0+1/1) Accurately ripped
08 [9e1a86d6|e2f0fc46] (0+1/1) Accurately ripped
09 [8ef9f971|005bd6cd] (0+1/1) Accurately ripped
10 [1ed91891|25ac7159] (0+1/1) Accurately ripped
11 [0dffd5c0|0438a6a4] (0+1/1) Accurately ripped
12 [227c5519|77e4bed3] (0+1/1) Accurately ripped
13 [d131ecb4|ee088bdc] (0+1/1) Accurately ripped
14 [9b95a381|9b6db0eb] (0+1/1) Accurately ripped
15 [dffc5b5f|47b25e5d] (0+1/1) Accurately ripped
16 [ae5eb967|ab1368ce] (0+1/1) Accurately ripped
17 [f480ae57|3c519d68] (0+1/1) Accurately ripped
18 [6cc2153d|81071304] (0+1/1) Accurately ripped
19 [5026f19b|e024668a] (0+1/1) Accurately ripped
20 [e56475a0|477fc7c1] (0+1/1) Accurately ripped
21 [9467bcf2|2dea5407] (0+1/1) Accurately ripped

Track Peak [ CRC32 ] [W/O NULL] [ LOG ]
– 100,0 [1B0BA7E5] [59E7C934] CRC32
01 100,0 [3D56A24E] [DE4A4128]
02 84,1 [8541535C] [6CBD7532]
03 100,0 [6BEC0945] [16E1B923]
04 84,1 [B530EB93] [5DC41421]
05 100,0 [949C2338] [12169A74]
06 100,0 [FF6EEE17] [FC23F302]
07 100,0 [E6D85974] [652595E5]
08 89,1 [494D0BCB] [58EE0456]
09 89,1 [C20FE88F] [49495965]
10 89,1 [3300F0AF] [132D0B7D]
11 100,0 [35AAACFF] [8A5A76F3]
12 89,1 [65285E3D] [8C84C959]
13 88,9 [1DB5DAC6] [D295A691]
14 89,1 [8BA8C32D] [EAE9245D]
15 79,4 [16EE00BD] [E35DE7FD]
16 86,6 [758CDE30] [249BDA85]
17 84,1 [4B3BCCD4] [9BEF7193]
18 100,0 [1D623CC0] [A22FE13D]
19 74,9 [FD2BE6C6] [D5FD0535]
20 100,0 [0BA39AA3] [B4CFD583]
21 89,1 [D69E9DB4] [00AB7383]

Beenie Man - Cool Cool Rider: The Roots Of A Dancehall Don (2004)

All thanks go to shatterhand

>>> My Blog <<<

Download from icerbox.com: