Subcategories

Beethoven - Chicago Symphony Orchestra / Sir Georg Solti ‎– The Nine Symphonies (1975) [Vinyl Rip 16/44 & mp3-320]

Posted By: v3122
Beethoven - Chicago Symphony Orchestra / Sir Georg Solti ‎– The Nine Symphonies (1975) [Vinyl Rip 16/44 & mp3-320]

Beethoven - Chicago Symphony Orchestra / Sir Georg Solti ‎– The Nine Symphonies (1975)
9 x Vinyl Rip 16/44 | Flac(Image + Cue) > 1808 Mb
MP3 CBR 320Kbps > 893 Mb | Artwork(jpg) > 2.29 Mb
London Records, CSP-9 | 9LP Box Set
Classical / Romantic

Ludwig van Beethoven was a German composer and pianist. A crucial figure in the transition between the Classical and Romantic eras in Western art music, he remains one of the most famous and influential of all composers. His best-known compositions include 9 symphonies, 5 piano concertos, 1 violin concerto, 32 piano sonatas, 16 string quartets, his great Mass the Missa solemnis, and one opera, Fidelio.

Born in Bonn, then the capital of the Electorate of Cologne and part of the Holy Roman Empire, Beethoven displayed his musical talents at an early age and was taught by his father Johann van Beethoven and by composer and conductor Christian Gottlob Neefe. At the age of 21 he moved to Vienna, where he began studying composition with Joseph Haydn and gained a reputation as a virtuoso pianist. He lived in Vienna until his death. By his late 20s his hearing began to deteriorate, and by the last decade of his life he was almost completely deaf. In 1811 he gave up conducting and performing in public but continued to compose; many of his most admired works come from these last 15 years of his life…

~ wiki
Tracklist:

Symphony №1 in C major:
Adagio molto - Allegro con brio
Andante cantabile con moto
Menuetto - Allegro molto у vivace
Adagio - Allegro molto у vivace

foobar2000 1.2.9 / Dynamic Range Meter 1.1.1
log date: 2017-11-05 19:40:56

––––––––––––––––––––––––––––––––––––––––
Analyzed: Ludwig van Beethoven / Symphony No.1
––––––––––––––––––––––––––––––––––––––––

DR Peak RMS Duration Track
––––––––––––––––––––––––––––––––––––––––
DR14 0.00 dB -17.14 dB 8:43 01-Adagio molto - Allegro con brio
DR14 -0.35 dB -20.22 dB 7:54 02-Andante cantabile con moto
DR12 -0.70 dB -18.26 dB 3:46 03-Menuetto - Allegro molto у vivace
DR13 0.00 dB -16.77 dB 5:42 04-Adagio - Allegro molto у vivace
––––––––––––––––––––––––––––––––––––––––

Number of tracks: 4
Official DR value: DR13

Samplerate: 44100 Hz
Channels: 2
Bits per sample: 16
Bitrate: 653 kbps
Codec: FLAC
================================================================================



Symphony №2 In D Major:
Egmont - Overture
Adagio molto - Allegro con brio
Larghetto
Scherzo - Allegro
Allegro molto

foobar2000 1.2.9 / Dynamic Range Meter 1.1.1
log date: 2017-11-05 19:41:10

––––––––––––––––––––––––––––––––––––––––
Analyzed: Ludwig van Beethoven / Symphony No.2
––––––––––––––––––––––––––––––––––––––––

DR Peak RMS Duration Track
––––––––––––––––––––––––––––––––––––––––
DR12 0.00 dB -16.92 dB 8:56 01-Egmont - Overture
DR13 -0.47 dB -17.55 dB 13:02 02-Adagio molto - Allegro con brio
DR14 -2.16 dB -22.18 dB 13:36 03-Larghetto
DR13 0.00 dB -18.14 dB 3:42 04-Scherzo - Allegro
DR13 0.00 dB -17.19 dB 6:37 05-Allegro molto
––––––––––––––––––––––––––––––––––––––––

Number of tracks: 5
Official DR value: DR13

Samplerate: 44100 Hz
Channels: 2
Bits per sample: 16
Bitrate: 642 kbps
Codec: FLAC
================================================================================



Symphony №3 In E major "Eroica":
Allegro con brio
Narcia funebre, Adagio assai
Scherzo, Allegro vivace
Allegro molto

foobar2000 1.2.9 / Dynamic Range Meter 1.1.1
log date: 2017-11-05 19:41:27

––––––––––––––––––––––––––––––––––––––––
Analyzed: Ludwig van Beethoven / Symphony No.3
––––––––––––––––––––––––––––––––––––––––

DR Peak RMS Duration Track
––––––––––––––––––––––––––––––––––––––––
DR13 0.00 dB -17.54 dB 19:33 01-Allegro con brio
DR14 -0.12 dB -19.71 dB 17:35 02-Marcia funebre, Adagio assai
DR13 0.00 dB -19.60 dB 5:53 03-Scherzo, Allegro vivace
DR13 0.00 dB -17.42 dB 12:19 04-Allegro molto
––––––––––––––––––––––––––––––––––––––––

Number of tracks: 4
Official DR value: DR13

Samplerate: 44100 Hz
Channels: 2
Bits per sample: 16
Bitrate: 622 kbps
Codec: FLAC
================================================================================



Symphony №4 In B Major:
Allegro vivace
Adagio
Allegro vivace
Allegro ma non troppo

foobar2000 1.2.9 / Dynamic Range Meter 1.1.1
log date: 2017-11-05 19:41:40

––––––––––––––––––––––––––––––––––––––––
Analyzed: Ludwig van Beethoven / Symphony №4
––––––––––––––––––––––––––––––––––––––––

DR Peak RMS Duration Track
––––––––––––––––––––––––––––––––––––––––
DR13 0.00 dB -17.91 dB 12:03 01-Allegro vivace
DR13 -1.08 dB -19.66 dB 11:04 02-Adagio
DR12 0.00 dB -17.80 dB 5:23 03-Allegro vivace
DR13 0.00 dB -17.66 dB 6:46 04-Allegro ma non troppo
––––––––––––––––––––––––––––––––––––––––

Number of tracks: 4
Official DR value: DR13

Samplerate: 44100 Hz
Channels: 2
Bits per sample: 16
Bitrate: 612 kbps
Codec: FLAC
================================================================================



Symphony №5 In C Minor:
Overture - Leonore №3
Allegro con brio
Andante con moto
Allegro

foobar2000 1.2.9 / Dynamic Range Meter 1.1.1
log date: 2017-11-05 19:41:57

––––––––––––––––––––––––––––––––––––––––
Analyzed: Ludwig van Beethoven / Symphony №5
––––––––––––––––––––––––––––––––––––––––

DR Peak RMS Duration Track
––––––––––––––––––––––––––––––––––––––––
DR13 -0.14 dB -18.91 dB 14:06 01-Overture - Leonore №3
DR12 0.00 dB -15.51 dB 8:15 02-Allegro con brio
DR13 -0.33 dB -19.50 dB 11:12 03-Andante con moto
DR12 0.00 dB -16.15 dB 17:06 04-Allegro
––––––––––––––––––––––––––––––––––––––––

Number of tracks: 4
Official DR value: DR12

Samplerate: 44100 Hz
Channels: 2
Bits per sample: 16
Bitrate: 617 kbps
Codec: FLAC
================================================================================


Symphony №6 In F Major "Pastoral":
Allegro ma non troppo
Andante molto mosso
Allegro

foobar2000 1.2.9 / Dynamic Range Meter 1.1.1
log date: 2017-11-05 19:42:11

––––––––––––––––––––––––––––––––––––––––
Analyzed: Ludwig van Beethoven / Symphony №6
––––––––––––––––––––––––––––––––––––––––

DR Peak RMS Duration Track
––––––––––––––––––––––––––––––––––––––––
DR13 0.00 dB -17.80 dB 12:30 01-Allegro ma non troppo
DR13 -2.00 dB -21.15 dB 13:23 02-Andante molto mosso
DR12 -0.28 dB -16.79 dB 18:58 03-Allegro
––––––––––––––––––––––––––––––––––––––––

Number of tracks: 3
Official DR value: DR13

Samplerate: 44100 Hz
Channels: 2
Bits per sample: 16
Bitrate: 646 kbps
Codec: FLAC
================================================================================


Symphony №7 In A Major:
Poco sontenuto - vivace
Allegretto
Presto
Allegro con brio
Overture Coriolan

foobar2000 1.2.9 / Dynamic Range Meter 1.1.1
log date: 2017-11-05 19:42:26

––––––––––––––––––––––––––––––––––––––––
Analyzed: Ludwig van Beethoven / Symphony №7
––––––––––––––––––––––––––––––––––––––––

DR Peak RMS Duration Track
––––––––––––––––––––––––––––––––––––––––
DR13 0.00 dB -16.97 dB 14:38 01-Poco sontenuto - vivace
DR14 -1.36 dB -22.43 dB 8:55 02-Allegretto
DR13 0.00 dB -18.68 dB 9:26 03-Presto
DR13 0.00 dB -15.74 dB 9:12 04-Allegro con brio
DR12 -0.88 dB -17.07 dB 8:07 05-Overture Coriolan
––––––––––––––––––––––––––––––––––––––––

Number of tracks: 5
Official DR value: DR13

Samplerate: 44100 Hz
Channels: 2
Bits per sample: 16
Bitrate: 648 kbps
Codec: FLAC
================================================================================


Symphony №8 In F Major:
Allegro vivace e con brio
Allegretto scherzando
Tempo di menuetto
Allegro vivace

foobar2000 1.2.9 / Dynamic Range Meter 1.1.1
log date: 2017-11-05 19:42:38

––––––––––––––––––––––––––––––––––––––––
Analyzed: Ludwig van Beethoven / Symphony №8
––––––––––––––––––––––––––––––––––––––––

DR Peak RMS Duration Track
––––––––––––––––––––––––––––––––––––––––
DR13 0.00 dB -16.78 dB 10:08 01-Allegro vivace e con brio
DR14 -3.08 dB -22.08 dB 4:16 02-Allegretto scherzando
DR12 0.00 dB -17.63 dB 5:36 03-Tempo di menuetto
DR13 0.00 dB -17.23 dB 7:44 04-Allegro vivace
––––––––––––––––––––––––––––––––––––––––

Number of tracks: 4
Official DR value: DR13

Samplerate: 44100 Hz
Channels: 2
Bits per sample: 16
Bitrate: 634 kbps
Codec: FLAC
================================================================================


Symphony №9 In D Major "Choral":
Allegro ma non troppo un poco maestoso
Molto vivace
Adagio molto e cantabile
Presto

foobar2000 1.2.9 / Dynamic Range Meter 1.1.1
log date: 2017-11-05 19:43:06

––––––––––––––––––––––––––––––––––––––––
Analyzed: Ludwig van Beethoven / Symphony №9
––––––––––––––––––––––––––––––––––––––––

DR Peak RMS Duration Track
––––––––––––––––––––––––––––––––––––––––
DR13 -0.18 dB -17.85 dB 17:36 01-Allegro ma non troppo un poco maestoso
DR14 0.00 dB -19.35 dB 14:01 02-Molto vivace
DR17 -0.37 dB -23.45 dB 19:46 03-Adagio molto e cantabile
DR12 0.00 dB -16.70 dB 25:01 04-Presto
––––––––––––––––––––––––––––––––––––––––

Number of tracks: 4
Official DR value: DR14

Samplerate: 44100 Hz
Channels: 2
Bits per sample: 16
Bitrate: 641 kbps
Codec: FLAC
================================================================================



Original ripper: Oleg-Leshiy
Original format: 24/192
Vinyl Condition: Ex
Cleaning:
Direct Drive Turntable: Pioneer PL-7L + ZYX R1000 Airy 3 gold
Cartridge:
Amplifier: PS audio Phono Stage + Tube Preamp (Telefunken)
ADC: TASCAM HS-P82
Postprocessing:

Downsampled to 16/44

Beethoven - Chicago Symphony Orchestra / Sir Georg Solti ‎– The Nine Symphonies (1975) [Vinyl Rip 16/44 & mp3-320]

All thanks go to the original releaser

Manowar: Collection (1982 - 2012) [Vinyl Rip 16/44 & mp3-320]
A-HA: Collection (1985-2015) [Vinyl Rip 16/44 & mp3-320]
Manowar: Collection (1982 - 2012) [Vinyl Rip 16/44 & mp3-320]
Scorpions: Collection (1974 - 2015) [Vinyl Rip 16/44 & mp3-320]
Pink Floyd - Echoes: The Best Of Pink Floyd (2001) [Vinyl Rip 16/44]

Beethoven or Beethoven in my Blog

Download Beethoven - Chicago Symphony Orchestra / Sir Georg Solti ‎– The Nine Symphonies (1975):