Béla Fleck - Drive (1988) [MFSL UDSACD 7003]

Posted By: v3122
Béla Fleck - Drive (1988) [MFSL UDSACD 7003]

Béla Fleck - Drive (1988)
EAC | Flac(Image) + Cue + Log & MP3 CBR 320Kbps
2005 | Mobile Fidelity Sound Lab, UDSACD 7003 | ~ 325 or 131 Mb | Scans Included
Folk, World & Country, Bluegrass, Banjo virtuoso

Drive is an album by American banjoist Béla Fleck. The album was produced toward the end of Fleck's New Grass Revival career and before the Flecktones were formed and included an all-star list of bluegrass performers…

~ wiki
Béla Fleck - Drive (1988):

Béla Fleck - Drive (1988) [MFSL UDSACD 7003]

Tracklist:

01. Whitewater [3:10]
02. Slipstream [5:08]
03. Up and Around the Bend [3:35]
04. Natchez Trace [4:57]
05. See Rock City [4:05]
06. The Legend [4:19]
07. The Lights of Home [5:07]
08. Down in the Swamp [3:36]
09. Sanctuary [7:25]
10. The Open Road [3:36]
11. Crucial County Breakdown [2:58]
12. Shuckin' the Corn (bonus)* [4:08]

Exact Audio Copy V1.3 from 2. September 2016

EAC extraction logfile from 20. November 2016, 20:20

BELLA FLECK / Drive (USA, MFSL, UDSACD 7003)

Used drive : ASUS DRW-24B3ST Adapter: 1 ID: 2

Read mode : Secure
Utilize accurate stream : Yes
Defeat audio cache : Yes
Make use of C2 pointers : No

Read offset correction : 6
Overread into Lead-In and Lead-Out : No
Fill up missing offset samples with silence : Yes
Delete leading and trailing silent blocks : No
Null samples used in CRC calculations : Yes
Used interface : Native Win32 interface for Win NT & 2000

Used output format : User Defined Encoder
Selected bitrate : 1024 kBit/s
Quality : High
Add ID3 tag : No
Command line compressor : C:\Program Files\EAC(v.1.3)\WV\wavpack.exe
Additional command line options : -h -hh -m %source%


TOC of the extracted CD

Track | Start | Length | Start sector | End sector
––––––––––––––––––––––––––––-
1 | 0:00.00 | 3:09.66 | 0 | 14240
2 | 3:09.66 | 5:08.02 | 14241 | 37342
3 | 8:17.68 | 3:34.67 | 37343 | 53459
4 | 11:52.60 | 4:56.54 | 53460 | 75713
5 | 16:49.39 | 4:04.71 | 75714 | 94084
6 | 20:54.35 | 4:19.04 | 94085 | 113513
7 | 25:13.39 | 5:06.60 | 113514 | 136523
8 | 30:20.24 | 3:35.56 | 136524 | 152704
9 | 33:56.05 | 7:24.61 | 152705 | 186065
10 | 41:20.66 | 3:36.07 | 186066 | 202272
11 | 44:56.73 | 2:58.27 | 202273 | 215649
12 | 47:55.25 | 4:08.04 | 215650 | 234253


Range status and errors

Selected range

Filename F:\BELLA FLECK - Drive (1988) (US 2005 Mobile Fidelity Sound Lab • UDSACD 7003)\BELLA FLECK - Drive (USA, MFSL, UDSACD 7003).wav

Peak level 99.4 %
Extraction speed 7.6 X
Range quality 100.0 %
Test CRC BE9601FF
Copy CRC BE9601FF
Copy OK

No errors occurred


AccurateRip summary

Track 1 accurately ripped (confidence 9) [58F86105] (AR v2)
Track 2 accurately ripped (confidence 9) [AE8CE948] (AR v2)
Track 3 accurately ripped (confidence 9) [B47C662F] (AR v2)
Track 4 accurately ripped (confidence 9) [BEA48C28] (AR v2)
Track 5 accurately ripped (confidence 9) [F8234875] (AR v2)
Track 6 accurately ripped (confidence 9) [92F34C8C] (AR v2)
Track 7 accurately ripped (confidence 9) [BBF8B0DB] (AR v2)
Track 8 accurately ripped (confidence 9) [8671EF41] (AR v2)
Track 9 accurately ripped (confidence 9) [685740A1] (AR v2)
Track 10 accurately ripped (confidence 9) [F4415CE0] (AR v2)
Track 11 accurately ripped (confidence 9) [BAAE61D8] (AR v2)
Track 12 accurately ripped (confidence 9) [7869B77A] (AR v2)

All tracks accurately ripped

End of status report

==== Log checksum 28C9B189BEF5A64D112A810288BC9494547C0B5DEAD58D9A784627415D4271CE ====

foobar2000 1.2.9 / Dynamic Range Meter 1.1.1
log date: 2016-11-24 04:34:54

––––––––––––––––––––––––––––––––––––––––
Analyzed: BELLA FLECK / Drive (USA, MFSL, UDSACD 7003)
––––––––––––––––––––––––––––––––––––––––

DR Peak RMS Duration Track
––––––––––––––––––––––––––––––––––––––––
DR13 -0.72 dB -17.10 dB 3:10 01-Whitewater
DR14 -0.52 dB -16.31 dB 5:08 02-Slipstream
DR14 -0.47 dB -16.67 dB 3:35 03-Up and Around the Bend
DR14 -0.05 dB -16.83 dB 4:57 04-Natchez Trace
DR14 -0.77 dB -17.30 dB 4:05 05-See Rock City
DR13 -1.40 dB -17.26 dB 4:19 06-The Legend
DR15 -1.04 dB -20.52 dB 5:07 07-The Lights of Home
DR13 -1.02 dB -18.68 dB 3:36 08-Down in the Swamp
DR13 -1.10 dB -17.27 dB 7:25 09-Sanctuary
DR13 -1.31 dB -16.51 dB 3:36 10-The Open Road
DR13 -0.12 dB -16.03 dB 2:58 11-Crucial County Breakdown
DR13 -0.60 dB -16.80 dB 4:08 12-Shuckin' the Corn (bonus)*
––––––––––––––––––––––––––––––––––––––––

Number of tracks: 12
Official DR value: DR13

Samplerate: 44100 Hz
Channels: 2
Bits per sample: 16
Bitrate: 827 kbps
Codec: FLAC

[CUETools log; Date: 24.11.2016 4:35:03; Version: 2.1.4]
[CTDB TOCID: rohFViaT_tHqrDhJrZy1.72TMCw-] found.
Track | CTDB Status
1 | (13/13) Accurately ripped
2 | (13/13) Accurately ripped
3 | (13/13) Accurately ripped
4 | (13/13) Accurately ripped
5 | (13/13) Accurately ripped
6 | (13/13) Accurately ripped
7 | (13/13) Accurately ripped
8 | (13/13) Accurately ripped
9 | (13/13) Accurately ripped
10 | (13/13) Accurately ripped
11 | (13/13) Accurately ripped
12 | (13/13) Accurately ripped
[AccurateRip ID: 00172135-00d9dad4-a70c330c] found.
Track [ CRC | V2 ] Status
01 [7591220f|58f86105] (10+09/33) Accurately ripped
02 [55e4cdb9|ae8ce948] (10+09/33) Accurately ripped
03 [78718677|b47c662f] (10+09/33) Accurately ripped
04 [e8863e30|bea48c28] (10+09/33) Accurately ripped
05 [413bf240|f8234875] (10+09/33) Accurately ripped
06 [376e4cbb|92f34c8c] (10+09/33) Accurately ripped
07 [e3665733|bbf8b0db] (10+09/33) Accurately ripped
08 [f070e35f|8671ef41] (10+09/33) Accurately ripped
09 [eb6be553|685740a1] (10+09/33) Accurately ripped
10 [0e99303e|f4415ce0] (10+09/33) Accurately ripped
11 [37d12ace|baae61d8] (10+09/33) Accurately ripped
12 [9b0d7925|7869b77a] (10+09/33) Accurately ripped
Offsetted by -1251:
01 [7d615e39] (03/33) Accurately ripped
02 [a8f35b68] (03/33) Accurately ripped
03 [9abbaf50] (03/33) Accurately ripped
04 [812276cc] (03/33) Accurately ripped
05 [5271965c] (03/33) Accurately ripped
06 [3181e184] (03/33) Accurately ripped
07 [30f55fce] (03/33) Accurately ripped
08 [90cb61f5] (03/33) Accurately ripped
09 [eb35fd10] (03/33) Accurately ripped
10 [4ac17698] (03/33) Accurately ripped
11 [a7fac900] (03/33) Accurately ripped
12 [cd3091e8] (03/33) Accurately ripped
Offsetted by -566:
01 [78ff9dfc] (07/33) Accurately ripped
02 [255a8968] (07/33) Accurately ripped
03 [82bf746b] (07/33) Accurately ripped
04 [c8832f13] (07/33) Accurately ripped
05 [ff420b80] (07/33) Accurately ripped
06 [662a4bde] (07/33) Accurately ripped
07 [e9657c9b] (07/33) Accurately ripped
08 [bf499ccd] (07/33) Accurately ripped
09 [5b1c6818] (07/33) Accurately ripped
10 [d4b2f0d6] (07/33) Accurately ripped
11 [1780f848] (07/33) Accurately ripped
12 [20cff47e] (07/33) Accurately ripped
Offsetted by -1245:
01 [96afc0d3] (00/33) No match (V2 was not tested)
02 [3aa0c49b] (00/33) No match (V2 was not tested)
03 [f2f64607] (00/33) No match (V2 was not tested)
04 [8015d7b8] (00/33) No match (V2 was not tested)
05 [f2c3f95d] (00/33) No match (V2 was not tested)
06 [38526597] (00/33) No match (V2 was not tested)
07 [5e62e623] (00/33) No match (V2 was not tested)
08 [e0f1bd00] (00/33) No match (V2 was not tested)
09 [38438bbb] (00/33) No match (V2 was not tested)
10 [75688492] (00/33) No match (V2 was not tested)
11 [12e0c64b] (00/33) No match (V2 was not tested)
12 [d6821de4] (00/33) No match (V2 was not tested)

Track Peak [ CRC32 ] [W/O NULL] [ LOG ]
– 99,4 [BE9601FF] [467ECB07] CRC32
01 92,0 [F3BAF355] [15FD0D0E]
02 94,1 [8EAED68A] [DA2E5DBC]
03 94,7 [EACAC61E] [80707984]
04 99,4 [F96E97AF] [23AF26DE]
05 91,5 [AA8112BE] [EB6CC118]
06 85,1 [440829D3] [49AEE195]
07 88,7 [54B93FAF] [E3E59A66]
08 88,9 [2095A02F] [713C3E06]
09 88,1 [3E6BB6A2] [686F8F19]
10 86,0 [3340E251] [80660A0E]
11 98,6 [A2949B5C] [443800EF]
12 93,2 [0A17C7DC] [2FB573D3]

Béla Fleck - Drive (1988) [MFSL UDSACD 7003]

All thanks go to the original releaser

Download Béla Fleck - Drive (1988):