Subcategories

Ben Webster - Classic Jazz Archive: No Fool, No Fun [Recorded 1932-1945] (2004)

Posted By: gribovar
Ben Webster - Classic Jazz Archive: No Fool, No Fun [Recorded 1932-1945] (2004)

Ben Webster - Classic Jazz Archive: No Fool, No Fun [Recorded 1932-1945] (2004)
EAC Rip | FLAC (tracks+.cue+log) - 548 MB | MP3 CBR 320 kbps (LAME 3.93) - 350 MB | Covers - 22 MB
Genre: Jazz, Swing | RAR 3% Rec. | Label: Membran Music (221987-306)

Ben Webster was considered one of the "big three" of swing tenors along with Coleman Hawkins (his main influence) and Lester Young. He had a tough, raspy, and brutal tone on stomps (with his own distinctive growls) yet on ballads he would turn into a pussy cat and play with warmth and sentiment. After violin lessons as a child, Webster learned how to play rudimentary piano (his neighbor Pete Johnson taught him to play blues). But after Budd Johnson showed him some basics on the saxophone, Webster played sax in the Young Family Band (which at the time included Lester Young). He had stints with Jap Allen and Blanche Calloway (making his recording debut with the latter) before joining Bennie Moten's Orchestra in time to be one of the stars on a classic session in 1932. Webster spent time with quite a few orchestras in the 1930s (including Andy Kirk, Fletcher Henderson in 1934, Benny Carter, Willie Bryant, Cab Calloway, and the short-lived Teddy Wilson big band).
In 1940 (after short stints in 1935 and 1936), Ben Webster became Duke Ellington's first major tenor soloist. During the next three years he was on many famous recordings, including "Cotton Tail" (which in addition to his memorable solo had a saxophone ensemble arranged by Webster) and "All Too Soon." After leaving Ellington in 1943 (he would return for a time in 1948-1949), Webster worked on 52nd Street; recorded frequently as both a leader and a sideman; had short periods with Raymond Scott, John Kirby, and Sid Catlett; and toured with Jazz at the Philharmonic during several seasons in the 1950s. Although his sound was considered out-of-style by that decade, Webster's work on ballads became quite popular and Norman Granz recorded him on many memorable sessions. Webster recorded a classic set with Art Tatum and generally worked steadily, but in 1964 he moved permanently to Copenhagen where he played when he pleased during his last decade. Although not all that flexible, Webster could swing with the best and his tone was a later influence on such diverse players as Archie Shepp, Lew Tabackin, Scott Hamilton, and Bennie Wallace.
CD 1 Tracklist (Cotton Tail):
01. The Blue Room
02. New Orleans
03. Milenberg Joys
04. Lafayette
05. Stampede
06. What's Your Story
07. Posin'
08. Tea For Two
09. Early Session Hop
10. Cotton Tail
11. All Too Soon
12. Conga Brava
13. Bojangles
14. My Greatest Mistake
15. Chloe
16. Blue Serge
17. Just A-Sittin' And A-Rockin'
18. Five O'Clock Drag
19. Chelsea Bridge
20. Rain Check
21. Perdido
22. What Am I Here For?
23. Main Stem

Total time: 01:11:05

CD 2 Tracklist:
01. Woke Up Clipped
02. Teezol
03. 'Nuff Said
04. The Horn
05. Dirty Deal
06. Don't Blame Me
07. I Surrender Dear
08. Tea For Two
09. After You've Gone
10. Body And Soul
11. Sleep
12. Linger Awhile
13. Memories Of You
14. Just A Riff
15. I Surrender Dear
16. Honeysuckle Rose
17. Blue Skies
18. Kat's Fur
19. My Old Flame
20. The Sheik Of Araby
21. Limehouse Blues
22. If Dreams Come True
23. I Can't Get Started

Total time: 01:17:35

Exact Audio Copy V1.0 beta 3 from 29. August 2011

EAC extraction logfile from 3. October 2013, 14:58

Ben Webster / Classic Jazz Archive CD1 - Cotton Tail

Used drive : Optiarc DVD RW AD-5200A Adapter: 0 ID: 0

Read mode : Secure
Utilize accurate stream : Yes
Defeat audio cache : Yes
Make use of C2 pointers : No

Read offset correction : 48
Overread into Lead-In and Lead-Out : No
Fill up missing offset samples with silence : Yes
Delete leading and trailing silent blocks : No
Null samples used in CRC calculations : Yes
Used interface : Native Win32 interface for Win NT & 2000
Gap handling : Appended to previous track

Used output format : User Defined Encoder
Selected bitrate : 128 kBit/s
Quality : High
Add ID3 tag : No
Command line compressor : C:\Program Files\Exact Audio Copy\Flac\flac.exe
Additional command line options : -V -8 -T "Genre=%genre%" -T "Artist=%artist%" -T "Title=%title%" -T "Album=%albumtitle%" -T "Date=%year%" -T "Tracknumber=%tracknr%" -T "Comment=%comment%" %source%


TOC of the extracted CD

Track | Start | Length | Start sector | End sector
––––––––––––––––––––––––––––-
1 | 0:00.00 | 3:20.11 | 0 | 15010
2 | 3:20.11 | 2:59.00 | 15011 | 28435
3 | 6:19.11 | 2:46.68 | 28436 | 40953
4 | 9:06.04 | 2:46.25 | 40954 | 53428
5 | 11:52.29 | 3:00.43 | 53429 | 66971
6 | 14:52.72 | 2:50.70 | 66972 | 79791
7 | 17:43.67 | 3:01.57 | 79792 | 93423
8 | 20:45.49 | 3:10.50 | 93424 | 107723
9 | 23:56.24 | 2:42.15 | 107724 | 119888
10 | 26:38.39 | 3:11.60 | 119889 | 134273
11 | 29:50.24 | 3:31.51 | 134274 | 150149
12 | 33:22.00 | 2:56.70 | 150150 | 163419
13 | 36:18.70 | 2:54.26 | 163420 | 176495
14 | 39:13.21 | 3:25.02 | 176496 | 191872
15 | 42:38.23 | 3:26.49 | 191873 | 207371
16 | 46:04.72 | 3:23.28 | 207372 | 222624
17 | 49:28.25 | 3:35.20 | 222625 | 238769
18 | 53:03.45 | 3:13.36 | 238770 | 253280
19 | 56:17.06 | 2:54.45 | 253281 | 266375
20 | 59:11.51 | 2:29.72 | 266376 | 277622
21 | 61:41.48 | 3:09.24 | 277623 | 291821
22 | 64:50.72 | 3:27.52 | 291822 | 307398
23 | 68:18.49 | 2:47.25 | 307399 | 319948


Track 1

Filename F:\2004.Ben Webster - Classic Jazz Archive (No Fool, No Fun) (2CD)\CD1 - Cotton Tail\01. The Blue Room (Rodgers - Hart).wav

Pre-gap length 0:00:02.00

Peak level 100.0 %
Extraction speed 2.0 X
Track quality 99.9 %
Test CRC C85B01EC
Copy CRC C85B01EC
Track not present in AccurateRip database
Copy OK

Track 2

Filename F:\2004.Ben Webster - Classic Jazz Archive (No Fool, No Fun) (2CD)\CD1 - Cotton Tail\02. New Orleans (Carmichael).wav

Pre-gap length 0:00:02.00

Peak level 100.0 %
Extraction speed 2.4 X
Track quality 100.0 %
Test CRC 11D03418
Copy CRC 11D03418
Track not present in AccurateRip database
Copy OK

Track 3

Filename F:\2004.Ben Webster - Classic Jazz Archive (No Fool, No Fun) (2CD)\CD1 - Cotton Tail\03. Milenberg Joys (Morton - Melrose).wav

Pre-gap length 0:00:02.00

Peak level 100.0 %
Extraction speed 2.5 X
Track quality 100.0 %
Test CRC C449BC2D
Copy CRC C449BC2D
Track not present in AccurateRip database
Copy OK

Track 4

Filename F:\2004.Ben Webster - Classic Jazz Archive (No Fool, No Fun) (2CD)\CD1 - Cotton Tail\04. Lafayette (Basie - Durham).wav

Pre-gap length 0:00:02.00

Peak level 100.0 %
Extraction speed 2.3 X
Track quality 99.9 %
Test CRC 08726D91
Copy CRC 08726D91
Track not present in AccurateRip database
Copy OK

Track 5

Filename F:\2004.Ben Webster - Classic Jazz Archive (No Fool, No Fun) (2CD)\CD1 - Cotton Tail\05. Stampede (Henderson).wav

Pre-gap length 0:00:02.00

Peak level 100.0 %
Extraction speed 2.4 X
Track quality 99.9 %
Test CRC E8A89D1C
Copy CRC E8A89D1C
Track not present in AccurateRip database
Copy OK

Track 6

Filename F:\2004.Ben Webster - Classic Jazz Archive (No Fool, No Fun) (2CD)\CD1 - Cotton Tail\06. What's Your Story (Johnson - Henderson).wav

Pre-gap length 0:00:02.00

Peak level 100.0 %
Extraction speed 2.9 X
Track quality 100.0 %
Test CRC 07BAEC66
Copy CRC 07BAEC66
Track not present in AccurateRip database
Copy OK

Track 7

Filename F:\2004.Ben Webster - Classic Jazz Archive (No Fool, No Fun) (2CD)\CD1 - Cotton Tail\07. Posin' (Kahn - Chaplin).wav

Pre-gap length 0:00:02.00

Peak level 100.0 %
Extraction speed 3.1 X
Track quality 100.0 %
Test CRC EA4A12A7
Copy CRC EA4A12A7
Track not present in AccurateRip database
Copy OK

Track 8

Filename F:\2004.Ben Webster - Classic Jazz Archive (No Fool, No Fun) (2CD)\CD1 - Cotton Tail\08. Tea For Two (Youmans - Caesar).wav

Pre-gap length 0:00:02.00

Peak level 100.0 %
Extraction speed 3.2 X
Track quality 100.0 %
Test CRC 7EC00EED
Copy CRC 7EC00EED
Track not present in AccurateRip database
Copy OK

Track 9

Filename F:\2004.Ben Webster - Classic Jazz Archive (No Fool, No Fun) (2CD)\CD1 - Cotton Tail\09. Early Session Hop (Wilson - Harding).wav

Pre-gap length 0:00:02.00

Peak level 100.0 %
Extraction speed 3.2 X
Track quality 100.0 %
Test CRC A4F7C688
Copy CRC A4F7C688
Track not present in AccurateRip database
Copy OK

Track 10

Filename F:\2004.Ben Webster - Classic Jazz Archive (No Fool, No Fun) (2CD)\CD1 - Cotton Tail\10. Cotton Tail (Ellington).wav

Pre-gap length 0:00:01.74

Peak level 99.7 %
Extraction speed 3.3 X
Track quality 100.0 %
Test CRC 4C351ECE
Copy CRC 4C351ECE
Track not present in AccurateRip database
Copy OK

Track 11

Filename F:\2004.Ben Webster - Classic Jazz Archive (No Fool, No Fun) (2CD)\CD1 - Cotton Tail\11. All Too Soon (Webster).wav

Pre-gap length 0:00:02.00

Peak level 100.0 %
Extraction speed 3.4 X
Track quality 100.0 %
Test CRC 88DAE90B
Copy CRC 88DAE90B
Track not present in AccurateRip database
Copy OK

Track 12

Filename F:\2004.Ben Webster - Classic Jazz Archive (No Fool, No Fun) (2CD)\CD1 - Cotton Tail\12. Conga Brava (Ellington - Webster).wav

Pre-gap length 0:00:02.00

Peak level 99.4 %
Extraction speed 2.8 X
Track quality 99.9 %
Test CRC B2223A10
Copy CRC B2223A10
Track not present in AccurateRip database
Copy OK

Track 13

Filename F:\2004.Ben Webster - Classic Jazz Archive (No Fool, No Fun) (2CD)\CD1 - Cotton Tail\13. Bojangles (Webster).wav

Pre-gap length 0:00:02.00

Peak level 100.0 %
Extraction speed 3.3 X
Track quality 100.0 %
Test CRC 7C3AE611
Copy CRC 7C3AE611
Track not present in AccurateRip database
Copy OK

Track 14

Filename F:\2004.Ben Webster - Classic Jazz Archive (No Fool, No Fun) (2CD)\CD1 - Cotton Tail\14. My Greatest Mistake (Webster).wav

Pre-gap length 0:00:02.00

Peak level 100.0 %
Extraction speed 3.5 X
Track quality 100.0 %
Test CRC F323BEB4
Copy CRC F323BEB4
Track not present in AccurateRip database
Copy OK

Track 15

Filename F:\2004.Ben Webster - Classic Jazz Archive (No Fool, No Fun) (2CD)\CD1 - Cotton Tail\15. Chloe (Song Of The Swamp) (Kahn - Moret).wav

Pre-gap length 0:00:02.00

Peak level 99.0 %
Extraction speed 3.4 X
Track quality 100.0 %
Test CRC 617948D7
Copy CRC 617948D7
Track not present in AccurateRip database
Copy OK

Track 16

Filename F:\2004.Ben Webster - Classic Jazz Archive (No Fool, No Fun) (2CD)\CD1 - Cotton Tail\16. Blue Serge (Webster - Ellington).wav

Pre-gap length 0:00:02.00

Peak level 97.9 %
Extraction speed 3.4 X
Track quality 100.0 %
Test CRC 9FD81519
Copy CRC 9FD81519
Track not present in AccurateRip database
Copy OK

Track 17

Filename F:\2004.Ben Webster - Classic Jazz Archive (No Fool, No Fun) (2CD)\CD1 - Cotton Tail\17. Just A-Sittin' And A-Rockin' (Webster).wav

Pre-gap length 0:00:02.00

Peak level 99.0 %
Extraction speed 3.5 X
Track quality 100.0 %
Test CRC 9976C8D0
Copy CRC 9976C8D0
Track not present in AccurateRip database
Copy OK

Track 18

Filename F:\2004.Ben Webster - Classic Jazz Archive (No Fool, No Fun) (2CD)\CD1 - Cotton Tail\18. Five O'Clock Drag (Ellington - Webster).wav

Pre-gap length 0:00:02.00

Peak level 99.3 %
Extraction speed 3.4 X
Track quality 100.0 %
Test CRC 59999AE3
Copy CRC 59999AE3
Track not present in AccurateRip database
Copy OK

Track 19

Filename F:\2004.Ben Webster - Classic Jazz Archive (No Fool, No Fun) (2CD)\CD1 - Cotton Tail\19. Chelsea Bridge (Strayhorn).wav

Pre-gap length 0:00:02.00

Peak level 99.5 %
Extraction speed 2.8 X
Track quality 99.9 %
Test CRC DFC86E08
Copy CRC DFC86E08
Track not present in AccurateRip database
Copy OK

Track 20

Filename F:\2004.Ben Webster - Classic Jazz Archive (No Fool, No Fun) (2CD)\CD1 - Cotton Tail\20. Rain Check (Webster).wav

Pre-gap length 0:00:02.00

Peak level 100.0 %
Extraction speed 3.2 X
Track quality 100.0 %
Test CRC C5C5B753
Copy CRC C5C5B753
Track not present in AccurateRip database
Copy OK

Track 21

Filename F:\2004.Ben Webster - Classic Jazz Archive (No Fool, No Fun) (2CD)\CD1 - Cotton Tail\21. Perdido (Drake - Lenk - Tizol).wav

Pre-gap length 0:00:02.00

Peak level 100.0 %
Extraction speed 3.4 X
Track quality 100.0 %
Test CRC E32075DC
Copy CRC E32075DC
Track not present in AccurateRip database
Copy OK

Track 22

Filename F:\2004.Ben Webster - Classic Jazz Archive (No Fool, No Fun) (2CD)\CD1 - Cotton Tail\22. What Am I Here For (Ellington).wav

Pre-gap length 0:00:02.00

Peak level 99.4 %
Extraction speed 3.4 X
Track quality 100.0 %
Test CRC 9DECB8DF
Copy CRC 9DECB8DF
Track not present in AccurateRip database
Copy OK

Track 23

Filename F:\2004.Ben Webster - Classic Jazz Archive (No Fool, No Fun) (2CD)\CD1 - Cotton Tail\23. Main Stem (Ellington).wav

Pre-gap length 0:00:02.00

Peak level 99.6 %
Extraction speed 2.9 X
Track quality 99.9 %
Test CRC C236C5CF
Copy CRC C236C5CF
Track not present in AccurateRip database
Copy OK


None of the tracks are present in the AccurateRip database

No errors occurred

End of status report

==== Log checksum E5961C4522BC9E46EBFE8194D3BC8331935BD846BE027969C81AF6426D0F54B0 ====

[CUETools log; Date: 05.09.2018 21:29:08; Version: 2.1.4]
[CTDB TOCID: shPI2c7mqL.I7lN.pXE2iPDBnXU-] found.
Track | CTDB Status
1 | (5/5) Accurately ripped
2 | (5/5) Accurately ripped
3 | (5/5) Accurately ripped
4 | (5/5) Accurately ripped
5 | (5/5) Accurately ripped
6 | (5/5) Accurately ripped
7 | (5/5) Accurately ripped
8 | (5/5) Accurately ripped
9 | (5/5) Accurately ripped
10 | (5/5) Accurately ripped
11 | (5/5) Accurately ripped
12 | (5/5) Accurately ripped
13 | (5/5) Accurately ripped
14 | (5/5) Accurately ripped
15 | (5/5) Accurately ripped
16 | (5/5) Accurately ripped
17 | (5/5) Accurately ripped
18 | (5/5) Accurately ripped
19 | (5/5) Accurately ripped
20 | (5/5) Accurately ripped
21 | (5/5) Accurately ripped
22 | (5/5) Accurately ripped
23 | (5/5) Accurately ripped
[AccurateRip ID: 003a1755-03cc3393-3c10a917] found.
Track [ CRC | V2 ] Status
01 [eb6c94a6|be44c72b] (0+1/1) Accurately ripped
02 [417eb62b|b138ac83] (0+1/1) Accurately ripped
03 [d049b4cc|f23c865f] (0+1/1) Accurately ripped
04 [001e52d1|43f4a605] (0+1/1) Accurately ripped
05 [cb3701d7|0148a459] (0+1/1) Accurately ripped
06 [c343cf63|d9845a83] (0+1/1) Accurately ripped
07 [73add916|8baa49b0] (0+1/1) Accurately ripped
08 [ef4be537|94351534] (0+1/1) Accurately ripped
09 [50eedfa8|01bcedab] (0+1/1) Accurately ripped
10 [d6d99c5d|0ea404c3] (0+1/1) Accurately ripped
11 [b535be52|3395bec4] (0+1/1) Accurately ripped
12 [3a5aa788|f9acc6a1] (0+1/1) Accurately ripped
13 [82540d4e|ebb9acd2] (0+1/1) Accurately ripped
14 [5f3b2dac|42a00fd8] (0+1/1) Accurately ripped
15 [42773de6|ac014842] (0+1/1) Accurately ripped
16 [0a735aec|62cc7ddc] (0+1/1) Accurately ripped
17 [8d4ac162|6974c82d] (0+1/1) Accurately ripped
18 [addee69b|fa414dc1] (0+1/1) Accurately ripped
19 [555b6fec|2c27dc6a] (0+1/1) Accurately ripped
20 [22eca69d|883a7dcd] (0+1/1) Accurately ripped
21 [84060a50|f39b206a] (0+1/1) Accurately ripped
22 [d253de0f|823894a1] (0+1/1) Accurately ripped
23 [f5b66078|9c760ca0] (0+1/1) Accurately ripped

Track Peak [ CRC32 ] [W/O NULL] [ LOG ]
– 100,0 [D585F5F8] [FCD96C65]
01 99,9 [C85B01EC] [BE3B9650] CRC32
02 100,0 [11D03418] [5E9FF686] CRC32
03 100,0 [C449BC2D] [DB3B2D78] CRC32
04 99,9 [08726D91] [6FCD23C0] CRC32
05 99,9 [E8A89D1C] [C9AAEEBC] CRC32
06 99,9 [07BAEC66] [1264BFA5] CRC32
07 99,9 [EA4A12A7] [B7453838] CRC32
08 99,9 [7EC00EED] [0BB2B3F8] CRC32
09 99,9 [A4F7C688] [F104A14E] CRC32
10 99,7 [4C351ECE] [BB8598D0] CRC32
11 100,0 [88DAE90B] [33B959ED] CRC32
12 99,4 [B2223A10] [52D9B28D] CRC32
13 100,0 [7C3AE611] [854321FA] CRC32
14 100,0 [F323BEB4] [88EF8C87] CRC32
15 99,0 [617948D7] [BFCA799E] CRC32
16 97,9 [9FD81519] [4A6463AF] CRC32
17 99,0 [9976C8D0] [3BF7EEC4] CRC32
18 99,3 [59999AE3] [C5613741] CRC32
19 99,5 [DFC86E08] [D980E0DE] CRC32
20 100,0 [C5C5B753] [5F7A4D14] CRC32
21 100,0 [E32075DC] [010E4DAA] CRC32
22 99,4 [9DECB8DF] [74AFAAE7] CRC32
23 99,6 [C236C5CF] [3859A167] CRC32

Exact Audio Copy V1.0 beta 3 from 29. August 2011

EAC extraction logfile from 3. October 2013, 16:03

Ben Webster / Classic Jazz Archive CD2 - Woke Up Clipped

Used drive : Optiarc DVD RW AD-5200A Adapter: 0 ID: 0

Read mode : Secure
Utilize accurate stream : Yes
Defeat audio cache : Yes
Make use of C2 pointers : No

Read offset correction : 48
Overread into Lead-In and Lead-Out : No
Fill up missing offset samples with silence : Yes
Delete leading and trailing silent blocks : No
Null samples used in CRC calculations : Yes
Used interface : Native Win32 interface for Win NT & 2000
Gap handling : Appended to previous track

Used output format : User Defined Encoder
Selected bitrate : 128 kBit/s
Quality : High
Add ID3 tag : No
Command line compressor : C:\Program Files\Exact Audio Copy\Flac\flac.exe
Additional command line options : -V -8 -T "Genre=%genre%" -T "Artist=%artist%" -T "Title=%title%" -T "Album=%albumtitle%" -T "Date=%year%" -T "Tracknumber=%tracknr%" -T "Comment=%comment%" %source%


TOC of the extracted CD

Track | Start | Length | Start sector | End sector
––––––––––––––––––––––––––––-
1 | 0:00.00 | 3:09.09 | 0 | 14183
2 | 3:09.09 | 2:46.47 | 14184 | 26680
3 | 5:55.56 | 3:04.50 | 26681 | 40530
4 | 9:00.31 | 2:31.04 | 40531 | 51859
5 | 11:31.35 | 3:30.05 | 51860 | 67614
6 | 15:01.40 | 2:46.48 | 67615 | 80112
7 | 17:48.13 | 2:51.33 | 80113 | 92970
8 | 20:39.46 | 2:58.43 | 92971 | 106363
9 | 23:38.14 | 4:25.67 | 106364 | 126305
10 | 28:04.06 | 3:14.28 | 126306 | 140883
11 | 31:18.34 | 3:08.43 | 140884 | 155026
12 | 34:27.02 | 3:13.40 | 155027 | 169541
13 | 37:40.42 | 3:49.16 | 169542 | 186732
14 | 41:29.58 | 4:03.24 | 186733 | 204981
15 | 45:33.07 | 3:17.07 | 204982 | 219763
16 | 48:50.14 | 3:14.33 | 219764 | 234346
17 | 52:04.47 | 3:16.01 | 234347 | 249047
18 | 55:20.48 | 3:01.47 | 249048 | 262669
19 | 58:22.20 | 4:17.36 | 262670 | 281980
20 | 62:39.56 | 4:38.20 | 281981 | 302850
21 | 67:18.01 | 4:13.03 | 302851 | 321828
22 | 71:31.04 | 2:58.37 | 321829 | 335215
23 | 74:29.41 | 3:05.51 | 335216 | 349141


Track 1

Filename F:\2004.Ben Webster - Classic Jazz Archive (No Fool, No Fun) (2CD)\CD2 - Woke Up Clipped\01. Woke Up Clipped (B. Webster).wav

Pre-gap length 0:00:02.00

Peak level 100.0 %
Extraction speed 2.4 X
Track quality 100.0 %
Test CRC B944E15B
Copy CRC B944E15B
Track not present in AccurateRip database
Copy OK

Track 2

Filename F:\2004.Ben Webster - Classic Jazz Archive (No Fool, No Fun) (2CD)\CD2 - Woke Up Clipped\02. Teezol (B. Webster).wav

Pre-gap length 0:00:02.00

Peak level 100.0 %
Extraction speed 2.1 X
Track quality 99.9 %
Test CRC DB9CC701
Copy CRC DB9CC701
Track not present in AccurateRip database
Copy OK

Track 3

Filename F:\2004.Ben Webster - Classic Jazz Archive (No Fool, No Fun) (2CD)\CD2 - Woke Up Clipped\03. 'Nuff Said (B. Webster).wav

Pre-gap length 0:00:02.00

Peak level 100.0 %
Extraction speed 2.7 X
Track quality 100.0 %
Test CRC B8285152
Copy CRC B8285152
Track not present in AccurateRip database
Copy OK

Track 4

Filename F:\2004.Ben Webster - Classic Jazz Archive (No Fool, No Fun) (2CD)\CD2 - Woke Up Clipped\04. The Horn (B. Webster).wav

Pre-gap length 0:00:02.00

Peak level 100.0 %
Extraction speed 2.3 X
Track quality 99.9 %
Test CRC 94218178
Copy CRC 94218178
Track not present in AccurateRip database
Copy OK

Track 5

Filename F:\2004.Ben Webster - Classic Jazz Archive (No Fool, No Fun) (2CD)\CD2 - Woke Up Clipped\05. Dirty Deal (B. Webster).wav

Pre-gap length 0:00:02.00

Peak level 100.0 %
Extraction speed 3.0 X
Track quality 100.0 %
Test CRC E8AD0BA3
Copy CRC E8AD0BA3
Track not present in AccurateRip database
Copy OK

Track 6

Filename F:\2004.Ben Webster - Classic Jazz Archive (No Fool, No Fun) (2CD)\CD2 - Woke Up Clipped\06. Don't Blame Me (Fields - McHugh).wav

Pre-gap length 0:00:02.00

Peak level 100.0 %
Extraction speed 2.5 X
Track quality 99.9 %
Test CRC 37BCE38E
Copy CRC 37BCE38E
Track not present in AccurateRip database
Copy OK

Track 7

Filename F:\2004.Ben Webster - Classic Jazz Archive (No Fool, No Fun) (2CD)\CD2 - Woke Up Clipped\07. I Surrender Dear (Clifford - Barris).wav

Pre-gap length 0:00:02.00

Peak level 100.0 %
Extraction speed 3.1 X
Track quality 100.0 %
Test CRC 60423470
Copy CRC 60423470
Track not present in AccurateRip database
Copy OK

Track 8

Filename F:\2004.Ben Webster - Classic Jazz Archive (No Fool, No Fun) (2CD)\CD2 - Woke Up Clipped\08. Tea For Two (Youmans - Caesar).wav

Pre-gap length 0:00:02.00

Peak level 100.0 %
Extraction speed 3.2 X
Track quality 100.0 %
Test CRC 130CAF98
Copy CRC 130CAF98
Track not present in AccurateRip database
Copy OK

Track 9

Filename F:\2004.Ben Webster - Classic Jazz Archive (No Fool, No Fun) (2CD)\CD2 - Woke Up Clipped\09. After You've Gone (T. Layton - H. Creamer).wav

Pre-gap length 0:00:02.00

Peak level 100.0 %
Extraction speed 3.5 X
Track quality 100.0 %
Test CRC 3680FD35
Copy CRC 3680FD35
Track not present in AccurateRip database
Copy OK

Track 10

Filename F:\2004.Ben Webster - Classic Jazz Archive (No Fool, No Fun) (2CD)\CD2 - Woke Up Clipped\10. Body And Soul (Heyman - Sour - Eyton - Green).wav

Pre-gap length 0:00:02.00

Peak level 100.0 %
Extraction speed 3.4 X
Track quality 100.0 %
Test CRC 44827FEF
Copy CRC 44827FEF
Track not present in AccurateRip database
Copy OK

Track 11

Filename F:\2004.Ben Webster - Classic Jazz Archive (No Fool, No Fun) (2CD)\CD2 - Woke Up Clipped\11. Sleep (E. Lebieg).wav

Pre-gap length 0:00:02.00

Peak level 100.0 %
Extraction speed 2.9 X
Track quality 99.9 %
Test CRC C40E8091
Copy CRC C40E8091
Track not present in AccurateRip database
Copy OK

Track 12

Filename F:\2004.Ben Webster - Classic Jazz Archive (No Fool, No Fun) (2CD)\CD2 - Woke Up Clipped\12. Linger Awhile (Rose - Owens).wav

Pre-gap length 0:00:02.00

Peak level 100.0 %
Extraction speed 2.9 X
Track quality 99.9 %
Test CRC 67D4A763
Copy CRC 67D4A763
Track not present in AccurateRip database
Copy OK

Track 13

Filename F:\2004.Ben Webster - Classic Jazz Archive (No Fool, No Fun) (2CD)\CD2 - Woke Up Clipped\13. Memories Of You (Blake - Razaf).wav

Pre-gap length 0:00:02.00

Peak level 100.0 %
Extraction speed 3.5 X
Track quality 100.0 %
Test CRC E09F85C4
Copy CRC E09F85C4
Track not present in AccurateRip database
Copy OK

Track 14

Filename F:\2004.Ben Webster - Classic Jazz Archive (No Fool, No Fun) (2CD)\CD2 - Woke Up Clipped\14. Just A Riff (S. Catlett).wav

Pre-gap length 0:00:02.00

Peak level 100.0 %
Extraction speed 3.1 X
Track quality 99.9 %
Test CRC 37E1169A
Copy CRC 37E1169A
Track not present in AccurateRip database
Copy OK

Track 15

Filename F:\2004.Ben Webster - Classic Jazz Archive (No Fool, No Fun) (2CD)\CD2 - Woke Up Clipped\15. I Surrender Dear (Clifford - Barris).wav

Pre-gap length 0:00:02.00

Peak level 100.0 %
Extraction speed 3.4 X
Track quality 100.0 %
Test CRC 72816688
Copy CRC 72816688
Track not present in AccurateRip database
Copy OK

Track 16

Filename F:\2004.Ben Webster - Classic Jazz Archive (No Fool, No Fun) (2CD)\CD2 - Woke Up Clipped\16. Honeysuckle Rose (Razaf - Waller).wav

Pre-gap length 0:00:02.00

Peak level 100.0 %
Extraction speed 3.3 X
Track quality 100.0 %
Test CRC E1DFAFE5
Copy CRC E1DFAFE5
Track not present in AccurateRip database
Copy OK

Track 17

Filename F:\2004.Ben Webster - Classic Jazz Archive (No Fool, No Fun) (2CD)\CD2 - Woke Up Clipped\17. Blue Skies (I. Berlin).wav

Pre-gap length 0:00:02.00

Peak level 100.0 %
Extraction speed 3.4 X
Track quality 100.0 %
Test CRC 4EC5E5F4
Copy CRC 4EC5E5F4
Track not present in AccurateRip database
Copy OK

Track 18

Filename F:\2004.Ben Webster - Classic Jazz Archive (No Fool, No Fun) (2CD)\CD2 - Woke Up Clipped\18. Kat's Fur (B. Webster).wav

Pre-gap length 0:00:02.00

Peak level 100.0 %
Extraction speed 3.3 X
Track quality 100.0 %
Test CRC 5D487D60
Copy CRC 5D487D60
Track not present in AccurateRip database
Copy OK

Track 19

Filename F:\2004.Ben Webster - Classic Jazz Archive (No Fool, No Fun) (2CD)\CD2 - Woke Up Clipped\19. My Old Flame (Coslow - Johnston).wav

Pre-gap length 0:00:02.00

Peak level 100.0 %
Extraction speed 3.5 X
Track quality 100.0 %
Test CRC 70447E06
Copy CRC 70447E06
Track not present in AccurateRip database
Copy OK

Track 20

Filename F:\2004.Ben Webster - Classic Jazz Archive (No Fool, No Fun) (2CD)\CD2 - Woke Up Clipped\20. The Sheik Of Araby (Smith - Snider - Wheeler).wav

Pre-gap length 0:00:02.00

Peak level 100.0 %
Extraction speed 3.6 X
Track quality 100.0 %
Test CRC 08968B71
Copy CRC 08968B71
Track not present in AccurateRip database
Copy OK

Track 21

Filename F:\2004.Ben Webster - Classic Jazz Archive (No Fool, No Fun) (2CD)\CD2 - Woke Up Clipped\21. Limehouse Blues (Furber - Braham).wav

Pre-gap length 0:00:02.00

Peak level 100.0 %
Extraction speed 3.5 X
Track quality 100.0 %
Test CRC 5F03A8FF
Copy CRC 5F03A8FF
Track not present in AccurateRip database
Copy OK

Track 22

Filename F:\2004.Ben Webster - Classic Jazz Archive (No Fool, No Fun) (2CD)\CD2 - Woke Up Clipped\22. If Dreams Come True (Mills - Sampson - Goodman).wav

Pre-gap length 0:00:02.00

Peak level 100.0 %
Extraction speed 3.4 X
Track quality 100.0 %
Test CRC C3C5551C
Copy CRC C3C5551C
Track not present in AccurateRip database
Copy OK

Track 23

Filename F:\2004.Ben Webster - Classic Jazz Archive (No Fool, No Fun) (2CD)\CD2 - Woke Up Clipped\23. I Can't Get Started (Gershwin - Duke).wav

Pre-gap length 0:00:02.00

Peak level 100.0 %
Extraction speed 3.4 X
Track quality 100.0 %
Test CRC D4E474FC
Copy CRC D4E474FC
Track not present in AccurateRip database
Copy OK


None of the tracks are present in the AccurateRip database

No errors occurred

End of status report

==== Log checksum CD7908E391CDBAEDE213059D283297D27EE4A9CE39EACC291146A17E406C329E ====

[CUETools log; Date: 05.09.2018 21:29:56; Version: 2.1.4]
[CTDB TOCID: iqwaWyTzxBtCufDQPPYV461qZ1M-] found.
Track | CTDB Status
1 | (5/5) Accurately ripped
2 | (5/5) Accurately ripped
3 | (5/5) Accurately ripped
4 | (5/5) Accurately ripped
5 | (5/5) Accurately ripped
6 | (5/5) Accurately ripped
7 | (5/5) Accurately ripped
8 | (5/5) Accurately ripped
9 | (5/5) Accurately ripped
10 | (5/5) Accurately ripped
11 | (5/5) Accurately ripped
12 | (5/5) Accurately ripped
13 | (5/5) Accurately ripped
14 | (5/5) Accurately ripped
15 | (5/5) Accurately ripped
16 | (5/5) Accurately ripped
17 | (5/5) Accurately ripped
18 | (5/5) Accurately ripped
19 | (5/5) Accurately ripped
20 | (5/5) Accurately ripped
21 | (5/5) Accurately ripped
22 | (5/5) Accurately ripped
23 | (5/5) Accurately ripped
[AccurateRip ID: 003d59a1-040c2b19-2e122f17] found.
Track [ CRC | V2 ] Status
01 [e097b355|274ebb49] (0+1/1) Accurately ripped
02 [f16ad097|3cb0f926] (0+1/1) Accurately ripped
03 [7e807141|29efb362] (0+1/1) Accurately ripped
04 [5c7472f6|87fd0d6e] (0+1/1) Accurately ripped
05 [0708e825|fc42457c] (0+1/1) Accurately ripped
06 [16e3c30f|d4365efc] (0+1/1) Accurately ripped
07 [55c713ca|780b25e7] (0+1/1) Accurately ripped
08 [19d2c305|8e3ac61f] (0+1/1) Accurately ripped
09 [05e1374f|07cd9c4d] (0+1/1) Accurately ripped
10 [c7407c2c|b841c56a] (0+1/1) Accurately ripped
11 [5a1fff94|4621e41e] (0+1/1) Accurately ripped
12 [7c465d9e|3ff71536] (0+1/1) Accurately ripped
13 [30113be8|f80db5fd] (0+1/1) Accurately ripped
14 [12d40f2d|d9a113b8] (0+1/1) Accurately ripped
15 [60ea2d28|094741fa] (0+1/1) Accurately ripped
16 [eed4cd5f|30eec585] (0+1/1) Accurately ripped
17 [f5bb0f36|93249694] (0+1/1) Accurately ripped
18 [078df3bc|3c5b01e8] (0+1/1) Accurately ripped
19 [891ba7a3|39438a7b] (0+1/1) Accurately ripped
20 [1de3bde5|64445feb] (0+1/1) Accurately ripped
21 [412d4f24|c607da7c] (0+1/1) Accurately ripped
22 [18a94f51|504be7d1] (0+1/1) Accurately ripped
23 [ef168e13|5f64ad18] (0+1/1) Accurately ripped

Track Peak [ CRC32 ] [W/O NULL] [ LOG ]
– 100,0 [4C417110] [93F162B2]
01 100,0 [B944E15B] [49F9B041] CRC32
02 100,0 [DB9CC701] [630A7C56] CRC32
03 99,9 [B8285152] [E8698397] CRC32
04 99,9 [94218178] [F06AA8ED] CRC32
05 100,0 [E8AD0BA3] [3C04633A] CRC32
06 99,9 [37BCE38E] [67713DA0] CRC32
07 99,9 [60423470] [5C8204F1] CRC32
08 100,0 [130CAF98] [967281F9] CRC32
09 99,9 [3680FD35] [BC0681A8] CRC32
10 99,9 [44827FEF] [47421438] CRC32
11 99,9 [C40E8091] [C6EEB790] CRC32
12 100,0 [67D4A763] [75B0656B] CRC32
13 100,0 [E09F85C4] [F7CFFAA3] CRC32
14 100,0 [37E1169A] [CC23FCCB] CRC32
15 100,0 [72816688] [4E54F1E6] CRC32
16 99,9 [E1DFAFE5] [9C9CEA17] CRC32
17 100,0 [4EC5E5F4] [5FC3D8A6] CRC32
18 100,0 [5D487D60] [D2CD8217] CRC32
19 99,9 [70447E06] [37897379] CRC32
20 100,0 [08968B71] [8E9CF524] CRC32
21 100,0 [5F03A8FF] [23E9279D] CRC32
22 100,0 [C3C5551C] [0ACEE30E] CRC32
23 100,0 [D4E474FC] [E63F313E] CRC32

Thanks to ssagwebster

See also:
Ben Webster - The Holland Sessions [Recorded 1969-1973] (1997)
Ben Webster - 1944-1946 (1998)
Ben Webster - 1946-1951 (2002)
Ben Webster - 1953-1954 (2008)