Subcategories

Benjamin Schmid, Lisa Smirnova - Shostakovich, Prokofiev, Weill (2015)

Posted By: peotuvave
Benjamin Schmid,  Lisa Smirnova - Shostakovich, Prokofiev, Weill (2015)

Benjamin Schmid, Lisa Smirnova - Shostakovich, Prokofiev, Weill (2015)
EAC Rip | Flac (Tracks + cue + log) | 225 MB | MP3 320Kbps CBR | 134 MB | 1 CD | Full Scans
Genre: Classical | Label: Ondine | Catalog Number: 1253

Third release on Ondine by the Austrian star violinist Benjamin Schmid contains fresh arrangements of well-known piano pieces by Shostakovich and Prokofiev for violin and piano. Also included is a suite transcribed from Kurt Weill's iconic ‘The Threepenny Opera'. All the three original works by the composers were written during the 1910s and 1920s.

Known for his exceptionally wide repertoire and a great sense of musicality Benjamin Schmid is one of the most versatile violinists of today. Described as "one of the most valuable of today's golden-age-violinists" (The New York Sun), Schmid has performed with orchestras such as Wiener Philharmoniker, Philharmonia Orchestra, Royal Concertgebouw, Gewandhausorchester Leipzig, Tonhalle-Orchester Zürich, National Symphony Orchestra Washington, Gulbenkian Orchestra, and Chamber Orchestra of Europe. He is also a sought-after jazz violinist. In 2006 the Strad Magazine wrote: "Schmid mesmerises from his very first entry, shaping phrases with a skin-rippling sensitivity to send the spirits soaring. His golden tone, immaculate intonation, faultless technique and total identification with this magical score are truly things of wonder."

Benjamin Schmid is joined in this recording by pianist Lisa Smirnova with whom Schmid has been collaborating in an extensive way for almost 20 years.

Shostakovich wrote to Tsyganov regarding his transcriptions of the piano Preludes Op. 34: "When listening to this transcription I forgot that I wrote these preludes for the piano as they now suit the violin so well."

Composer: Dmitri Shostakovich, Sergei Prokofiev, Kurt Weill
Performer: Benjamin Schmid, Lisa Smirnova

Reviews: Benjamin Schmid is certainly one for a challenge. He and pianist Lisa Smirnova have constructed a very unusual programme that is dripping with arrangements. First there are 14 of the 24 Preludes, Op.34 that Dmitri Tsyganov fashioned out of Shostakovich’s piano originals. Then, not to be outdone – and because the Tsiganov arrangements are well-known – he has found 1993 arrangements made by another Russian musician, Viktor Derevianko, of Prokofiev’s Visions Fugitives, Op.22. Finally, to bring the geographical focus westwards, he plays the seven pieces from The Threepenny Opera in the famous arrangements by Stefan Frenkel.

So the first question, given the foregoing: 41 tracks in a 54-minute album, and no works originally written for the violin. Does all of this really work? It depends on the conviction of the performers, and beyond that the validity of the arrangements. Two of them have stood the test of time and it’s only the Prokofiev that will be new to many. So it’s as well to consider the performances.

Most fiddlers pick and choose half a dozen of the Tsyganov Prelude arrangements. Some will add them singly to a recital or recording. Others, more specialised, will promote a larger number. Hardly anyone records more than half of the 19 arrangements Tsyganov made. Schmid’s decision to record as many as 14 is laudable in the context, but there was room for them all. Maybe he remains less than convinced by the ones he hasn’t taped, or maybe he or Ondine think that this would give the programme a thoroughly archival look to it. I have a sneaking sense of disappointment, though, that he didn’t go the whole hog and record them all, adding the five arrangements Lera Auerbach made in 2000 of the remaining Preludes. As for the selected Preludes, Schmid is not afraid to get some abrasive grit into his tone in No.6 or to bring a wry quality of characterisation to No.13. He’s even quicker than Camilla Wicks and Sixten Ehrling in their venerable recording of No.10, one of the most famous of the set. Schmid and Smirnova have the good sense to jumble up the set, starting with No.24 and ending with the driving No.20 but playing the majority in a broad narrative, chronological direction. He prefers to order those he plays 24, 2, 6, 10, 12 and so on.

I’d not come across the Prokofiev-Derevianko on disc before. The arranger is a distinguished musician and a pupil of Heinrich Neuhaus. He also worked with Shostakovich after 1970 before emigrating to Israel in 1976. The Visions are played complete, in the accepted order – though we know that they were written at different times. Schmid and Smirnova prove admirable exponents of this new-clothed work, though I wonder how the pianist feels about the violinist taking the glory. It’s fascinating to hear the famous Allegretto (No.3) re-clothed in this way, as well as to hear the wandering expressivity of No.7, and the driving No.15. You can also hear a huge exhalation of breath from Schmid in No.17.

It’s always engaging to come across the Weill-Frenkel septet of pieces. They suit Schmid’s tonal variety and shaping of material. I think one can hear from his playing of the Cannon Song that he has a Jazz background, as his rhythm is splendidly flexible. His smeary vibrato in the Tango Ballad works well.

This well played and well recorded recital comes with sensible and helpful booklet notes. It’s something of a niche release but worth exploring if you’re a questing fiddle-lover.

Tracklisting:

Dmitri Shostakovich
01. 24 Preludes, Op. 34 (arr. D.M. Tsiganov for violin and piano): No. 24 in D Minor, Allegretto [01:21]
02. 24 Preludes, Op. 34 (arr. D.M. Tsiganov for violin and piano): No. 2 in A Minor, Allegretto [01:02]
03. 24 Preludes, Op. 34 (arr. D.M. Tsiganov for violin and piano): No. 6 in B Minor, Allegretto [01:21]
04. 24 Preludes, Op. 34 (arr. D.M. Tsiganov for violin and piano): No. 10 in C-Sharp Minor, Moderato non troppo [01:46]
05. 24 Preludes, Op. 34 (arr. D.M. Tsiganov for violin and piano): No. 12 in G-Sharp Minor, Allegretto non troppo [01:52]
06. 24 Preludes, Op. 34 (arr. D.M. Tsiganov for violin and piano): No. 13 in F-Sharp Major, Moderato [01:05]
07. 24 Preludes, Op. 34 (arr. D.M. Tsiganov for violin and piano): No. 15 in D-Flat Major,Allegretto [00:54]
08. 24 Preludes, Op. 34 (arr. D.M. Tsiganov for violin and piano): No. 16 in B-Flat Minor, Andantino [01:06]
09. 24 Preludes, Op. 34 (arr. D.M. Tsiganov for violin and piano): No. 17 in A-Flat Major, Largo [01:42]
10. 24 Preludes, Op. 34 (arr. D.M. Tsiganov for violin and piano): No. 18 in F Minor, Allegretto [00:52]
11. 24 Preludes, Op. 34 (arr. D.M. Tsiganov for violin and piano): No. 19 in E-Flat Major, Andantino [01:50]
12. 24 Preludes, Op. 34 (arr. D.M. Tsiganov for violin and piano): No. 21 in B-Flat Major, Allegretto poco moderato [00:52]
13. 24 Preludes, Op. 34 (arr. D.M. Tsiganov for violin and piano): No. 22 in G Minor, Adagio [02:04]
14. 24 Preludes, Op. 34 (arr. D.M. Tsiganov for violin and piano): No. 20 in C Minor, Allegretto [00:50]

Sergei Prokofiev
15. Visions fugitives, Op. 22 (arr. V. Derewianko for violin and piano): I. Lentamente [00:59]
16. Visions fugitives, Op. 22 (arr. V. Derewianko for violin and piano): II. Andante [01:16]
17. Visions fugitives, Op. 22 (arr. V. Derewianko for violin and piano): III. Allegretto [01:03]
18. Visions fugitives, Op. 22 (arr. V. Derewianko for violin and piano): IV. Animato - Piu sostenuto [01:07]
19. Visions fugitives, Op. 22 (arr. V. Derewianko for violin and piano): V. Molto giocoso [00:26]
20. Visions fugitives, Op. 22 (arr. V. Derewianko for violin and piano): VI. Con eleganza [00:46]
21. Visions fugitives, Op. 22 (arr. V. Derewianko for violin and piano): VII. Pittoresco [01:54]
22. Visions fugitives, Op. 22 (Arr. V. Derewianko For Violin And Piano): VIII. Commodo [01:25]
23. Visions fugitives, Op. 22 (arr. V. Derewianko for violin and piano): IX. Allegretto tranquillo [01:04]
24. Visions fugitives, Op. 22 (arr. V. Derewianko for violin and piano): X. Ridicolosamente [00:58]
25. Visions fugitives, Op. 22 (arr. V. Derewianko for violin and piano): XI. Con vivacita [01:15]
26. Visions fugitives, Op. 22 (arr. V. Derewianko for violin and piano): XII. Assai moderato [01:10]
27. Visions fugitives, Op. 22 (Arr. V. Derewianko For Violin And Piano): XIII. Allegretto [00:51]
28. Visions fugitives, Op. 22 (arr. V. Derewianko for violin and piano): XIV. Feroce [01:08]
29. Visions fugitives, Op. 22 (arr. V. Derewianko for violin and piano): XV. Inquieto [00:51]
30. Visions fugitives, Op. 22 (arr. V. Derewianko for violin and piano): XVI. Dolente [01:53]
31. Visions fugitives, Op. 22 (Arr. V. Derewianko For Violin And Piano): XVII. Poetico [01:20]
32. Visions fugitives, Op. 22 (Arr. V. Derewianko For Violin And Piano): XVIII. Con Una Dolce Lentezza [01:15]
33. Visions fugitives, Op. 22 (arr. V. Derewianko for violin and piano): XIX. Presto agitatissimo e molto accentuato [00:47]
34. Visions fugitives, Op. 22 (arr. V. Derewianko for violin and piano): XX. Lento irrealmente [01:52]

Kurt Weill
35. 7 Stucke nach der Dreigroschenoper (arr. S. Frenkel): No. 1. Moritat vom Mackie Messer (The Ballad of Mack the Knife) [02:38]
36. 7 Stucke nach der Dreigroschenoper (arr. S. Frenkel): No. 2. Ruf aus der Gruft (Call from the Grave) [00:59]
37. 7 Stucke nach der Dreigroschenoper (arr. S. Frenkel): No. 3. Ballade vom angenehmen Leben (The Ballad of Pleasant Living) [02:11]
38. 7 Stucke nach der Dreigroschenoper (arr. S. Frenkel): No. 4. Pollys Lied (Polly's Song) [01:37]
39. 7 Stucke nach der Dreigroschenoper (arr. S. Frenkel): No. 5. Zuhalterballade (The Procurer's Ballad) [01:32]
40. 7 Stucke nach der Dreigroschenoper (arr. S. Frenkel): No. 6. Seerauberjenny (Pirate Jenny) [01:21]
41. 7 Stucke nach der Dreigroschenoper (arr. S. Frenkel): No. 7. Kanonensong (Cannon Song) [01:46]

Exact Audio Copy V1.0 beta 3 from 29. August 2011

EAC extraction logfile from 14. October 2015, 19:28

Benjamin Schmid, Lisa Smirnova / Shostakovich, Prokofiev & Weill: Works for Violin & Piano

Used drive : MATSHITADVD-RAM UJ8C2 Adapter: 0 ID: 0

Read mode : Secure
Utilize accurate stream : Yes
Defeat audio cache : Yes
Make use of C2 pointers : No

Read offset correction : 103
Overread into Lead-In and Lead-Out : No
Fill up missing offset samples with silence : Yes
Delete leading and trailing silent blocks : No
Null samples used in CRC calculations : Yes
Used interface : Native Win32 interface for Win NT & 2000
Gap handling : Appended to previous track

Used output format : User Defined Encoder
Selected bitrate : 128 kBit/s
Quality : High
Add ID3 tag : No
Command line compressor : C:\Program Files (x86)\Exact Audio Copy\Flac\flac.exe
Additional command line options : -8 -V -T "ARTIST=%artist%" -T "TITLE=%title%" -T "ALBUM=%albumtitle%" -T "DATE=%year%" -T "TRACKNUMBER=%tracknr%" -T "GENRE=%genre%" -T "PERFORMER=%albuminterpret%" -T "COMPOSER=%composer%" %haslyrics%–tag-from-file=LYRICS="%lyricsfile%"%haslyrics% -T "ALBUMARTIST=%albumartist%" -T "DISCNUMBER=%cdnumber%" -T "TOTALDISCS=%totalcds%" -T "TOTALTRACKS=%numtracks%" -T "COMMENT=%comment%" %source% -o %dest%


TOC of the extracted CD

Track | Start | Length | Start sector | End sector
––––––––––––––––––––––––––––-
1 | 0:00.00 | 1:21.74 | 0 | 6148
2 | 1:21.74 | 1:02.50 | 6149 | 10848
3 | 2:24.49 | 1:21.31 | 10849 | 16954
4 | 3:46.05 | 1:46.69 | 16955 | 24973
5 | 5:32.74 | 1:52.44 | 24974 | 33417
6 | 7:25.43 | 1:05.32 | 33418 | 38324
7 | 8:31.00 | 0:54.74 | 38325 | 42448
8 | 9:25.74 | 1:06.00 | 42449 | 47398
9 | 10:31.74 | 1:42.69 | 47399 | 55117
10 | 12:14.68 | 0:52.74 | 55118 | 59091
11 | 13:07.67 | 1:50.42 | 59092 | 67383
12 | 14:58.34 | 0:52.04 | 67384 | 71287
13 | 15:50.38 | 2:04.68 | 71288 | 80655
14 | 17:55.31 | 0:50.64 | 80656 | 84469
15 | 18:46.20 | 0:59.35 | 84470 | 88929
16 | 19:45.55 | 1:16.72 | 88930 | 94701
17 | 21:02.52 | 1:03.01 | 94702 | 99427
18 | 22:05.53 | 1:07.61 | 99428 | 104513
19 | 23:13.39 | 0:26.29 | 104514 | 106492
20 | 23:39.68 | 0:46.44 | 106493 | 109986
21 | 24:26.37 | 1:54.37 | 109987 | 118573
22 | 26:20.74 | 1:25.72 | 118574 | 125020
23 | 27:46.71 | 1:04.73 | 125021 | 129893
24 | 28:51.69 | 0:58.30 | 129894 | 134273
25 | 29:50.24 | 1:15.50 | 134274 | 139948
26 | 31:05.74 | 1:10.30 | 139949 | 145228
27 | 32:16.29 | 0:51.73 | 145229 | 149126
28 | 33:08.27 | 1:08.22 | 149127 | 154248
29 | 34:16.49 | 0:51.64 | 154249 | 158137
30 | 35:08.38 | 1:53.41 | 158138 | 166653
31 | 37:02.04 | 1:20.66 | 166654 | 172719
32 | 38:22.70 | 1:15.09 | 172720 | 178353
33 | 39:38.04 | 0:47.03 | 178354 | 181881
34 | 40:25.07 | 1:52.03 | 181882 | 190284
35 | 42:17.10 | 2:38.13 | 190285 | 202147
36 | 44:55.23 | 0:59.52 | 202148 | 206624
37 | 45:55.00 | 2:11.08 | 206625 | 216457
38 | 48:06.08 | 1:37.04 | 216458 | 223736
39 | 49:43.12 | 1:32.67 | 223737 | 230703
40 | 51:16.04 | 1:21.00 | 230704 | 236778
41 | 52:37.04 | 1:46.27 | 236779 | 244755


Track 1

Filename F:\EAC\Benjamin Schmid, Lisa Smirnova - 2015 - Shostakovich, Prokofiev & Weill- Works for Violin & Piano\01 - 24 Preludes, Op. 34 (arr. D.M. Tsiganov for violin and piano)- No. 24 in D Minor, Allegretto.wav

Pre-gap length 0:00:02.00

Peak level 64.0 %
Extraction speed 1.0 X
Track quality 99.8 %
Test CRC AB1CC1CF
Copy CRC AB1CC1CF
Track not present in AccurateRip database
Copy OK

Track 2

Filename F:\EAC\Benjamin Schmid, Lisa Smirnova - 2015 - Shostakovich, Prokofiev & Weill- Works for Violin & Piano\02 - 24 Preludes, Op. 34 (arr. D.M. Tsiganov for violin and piano)- No. 2 in A Minor, Allegretto.wav

Peak level 70.0 %
Extraction speed 1.7 X
Track quality 100.0 %
Test CRC FC46AED9
Copy CRC FC46AED9
Track not present in AccurateRip database
Copy OK

Track 3

Filename F:\EAC\Benjamin Schmid, Lisa Smirnova - 2015 - Shostakovich, Prokofiev & Weill- Works for Violin & Piano\03 - 24 Preludes, Op. 34 (arr. D.M. Tsiganov for violin and piano)- No. 6 in B Minor, Allegretto.wav

Peak level 84.1 %
Extraction speed 2.0 X
Track quality 100.0 %
Test CRC 7E877A01
Copy CRC 7E877A01
Track not present in AccurateRip database
Copy OK

Track 4

Filename F:\EAC\Benjamin Schmid, Lisa Smirnova - 2015 - Shostakovich, Prokofiev & Weill- Works for Violin & Piano\04 - 24 Preludes, Op. 34 (arr. D.M. Tsiganov for violin and piano)- No. 10 in C-Sharp Minor, Moderato non troppo.wav

Peak level 37.1 %
Extraction speed 2.2 X
Track quality 100.0 %
Test CRC 11A755E3
Copy CRC 11A755E3
Track not present in AccurateRip database
Copy OK

Track 5

Filename F:\EAC\Benjamin Schmid, Lisa Smirnova - 2015 - Shostakovich, Prokofiev & Weill- Works for Violin & Piano\05 - 24 Preludes, Op. 34 (arr. D.M. Tsiganov for violin and piano)- No. 12 in G-Sharp Minor, Allegretto non troppo.wav

Peak level 50.7 %
Extraction speed 2.4 X
Track quality 100.0 %
Test CRC AE236432
Copy CRC AE236432
Track not present in AccurateRip database
Copy OK

Track 6

Filename F:\EAC\Benjamin Schmid, Lisa Smirnova - 2015 - Shostakovich, Prokofiev & Weill- Works for Violin & Piano\06 - 24 Preludes, Op. 34 (arr. D.M. Tsiganov for violin and piano)- No. 13 in F-Sharp Major, Moderato.wav

Peak level 44.6 %
Extraction speed 1.0 X
Track quality 99.8 %
Test CRC 3A037413
Copy CRC 3A037413
Track not present in AccurateRip database
Copy OK

Track 7

Filename F:\EAC\Benjamin Schmid, Lisa Smirnova - 2015 - Shostakovich, Prokofiev & Weill- Works for Violin & Piano\07 - 24 Preludes, Op. 34 (arr. D.M. Tsiganov for violin and piano)- No. 15 in D-Flat Major,Allegretto.wav

Peak level 69.5 %
Extraction speed 1.9 X
Track quality 100.0 %
Test CRC 22ABC34F
Copy CRC 22ABC34F
Track not present in AccurateRip database
Copy OK

Track 8

Filename F:\EAC\Benjamin Schmid, Lisa Smirnova - 2015 - Shostakovich, Prokofiev & Weill- Works for Violin & Piano\08 - 24 Preludes, Op. 34 (arr. D.M. Tsiganov for violin and piano)- No. 16 in B-Flat Minor, Andantino.wav

Peak level 74.6 %
Extraction speed 2.2 X
Track quality 100.0 %
Test CRC D3F73678
Copy CRC D3F73678
Track not present in AccurateRip database
Copy OK

Track 9

Filename F:\EAC\Benjamin Schmid, Lisa Smirnova - 2015 - Shostakovich, Prokofiev & Weill- Works for Violin & Piano\09 - 24 Preludes, Op. 34 (arr. D.M. Tsiganov for violin and piano)- No. 17 in A-Flat Major, Largo.wav

Peak level 39.6 %
Extraction speed 1.5 X
Track quality 99.8 %
Test CRC 2ADEE1D7
Copy CRC 2ADEE1D7
Track not present in AccurateRip database
Copy OK

Track 10

Filename F:\EAC\Benjamin Schmid, Lisa Smirnova - 2015 - Shostakovich, Prokofiev & Weill- Works for Violin & Piano\10 - 24 Preludes, Op. 34 (arr. D.M. Tsiganov for violin and piano)- No. 18 in F Minor, Allegretto.wav

Peak level 76.9 %
Extraction speed 2.1 X
Track quality 100.0 %
Test CRC 6E0ECF98
Copy CRC 6E0ECF98
Track not present in AccurateRip database
Copy OK

Track 11

Filename F:\EAC\Benjamin Schmid, Lisa Smirnova - 2015 - Shostakovich, Prokofiev & Weill- Works for Violin & Piano\11 - 24 Preludes, Op. 34 (arr. D.M. Tsiganov for violin and piano)- No. 19 in E-Flat Major, Andantino.wav

Peak level 63.7 %
Extraction speed 1.6 X
Track quality 99.9 %
Test CRC B1E34D29
Copy CRC B1E34D29
Track not present in AccurateRip database
Copy OK

Track 12

Filename F:\EAC\Benjamin Schmid, Lisa Smirnova - 2015 - Shostakovich, Prokofiev & Weill- Works for Violin & Piano\12 - 24 Preludes, Op. 34 (arr. D.M. Tsiganov for violin and piano)- No. 21 in B-Flat Major, Allegretto poco moderato.wav

Peak level 70.7 %
Extraction speed 2.1 X
Track quality 100.0 %
Test CRC 68513558
Copy CRC 68513558
Track not present in AccurateRip database
Copy OK

Track 13

Filename F:\EAC\Benjamin Schmid, Lisa Smirnova - 2015 - Shostakovich, Prokofiev & Weill- Works for Violin & Piano\13 - 24 Preludes, Op. 34 (arr. D.M. Tsiganov for violin and piano)- No. 22 in G Minor, Adagio.wav

Peak level 61.8 %
Extraction speed 3.0 X
Track quality 100.0 %
Test CRC C3BDEB31
Copy CRC C3BDEB31
Track not present in AccurateRip database
Copy OK

Track 14

Filename F:\EAC\Benjamin Schmid, Lisa Smirnova - 2015 - Shostakovich, Prokofiev & Weill- Works for Violin & Piano\14 - 24 Preludes, Op. 34 (arr. D.M. Tsiganov for violin and piano)- No. 20 in C Minor, Allegretto.wav

Peak level 83.8 %
Extraction speed 2.3 X
Track quality 100.0 %
Test CRC 436BAA17
Copy CRC 436BAA17
Track not present in AccurateRip database
Copy OK

Track 15

Filename F:\EAC\Benjamin Schmid, Lisa Smirnova - 2015 - Shostakovich, Prokofiev & Weill- Works for Violin & Piano\15 - Visions fugitives, Op. 22 (arr. V. Derewianko for violin and piano)- I. Lentamente.wav

Peak level 30.2 %
Extraction speed 2.4 X
Track quality 100.0 %
Test CRC 50F2B457
Copy CRC 50F2B457
Track not present in AccurateRip database
Copy OK

Track 16

Filename F:\EAC\Benjamin Schmid, Lisa Smirnova - 2015 - Shostakovich, Prokofiev & Weill- Works for Violin & Piano\16 - Visions fugitives, Op. 22 (arr. V. Derewianko for violin and piano)- II. Andante.wav

Peak level 51.1 %
Extraction speed 2.7 X
Track quality 100.0 %
Test CRC B530B371
Copy CRC B530B371
Track not present in AccurateRip database
Copy OK

Track 17

Filename F:\EAC\Benjamin Schmid, Lisa Smirnova - 2015 - Shostakovich, Prokofiev & Weill- Works for Violin & Piano\17 - Visions fugitives, Op. 22 (arr. V. Derewianko for violin and piano)- III. Allegretto.wav

Peak level 63.9 %
Extraction speed 2.5 X
Track quality 100.0 %
Test CRC 64AAA87C
Copy CRC 64AAA87C
Track not present in AccurateRip database
Copy OK

Track 18

Filename F:\EAC\Benjamin Schmid, Lisa Smirnova - 2015 - Shostakovich, Prokofiev & Weill- Works for Violin & Piano\18 - Visions fugitives, Op. 22 (arr. V. Derewianko for violin and piano)- IV. Animato - Piu sostenuto.wav

Peak level 78.4 %
Extraction speed 2.6 X
Track quality 100.0 %
Test CRC FFCFF552
Copy CRC FFCFF552
Track not present in AccurateRip database
Copy OK

Track 19

Filename F:\EAC\Benjamin Schmid, Lisa Smirnova - 2015 - Shostakovich, Prokofiev & Weill- Works for Violin & Piano\19 - Visions fugitives, Op. 22 (arr. V. Derewianko for violin and piano)- V. Molto giocoso.wav

Peak level 81.3 %
Extraction speed 1.7 X
Track quality 100.0 %
Test CRC 5E326B94
Copy CRC 5E326B94
Track not present in AccurateRip database
Copy OK

Track 20

Filename F:\EAC\Benjamin Schmid, Lisa Smirnova - 2015 - Shostakovich, Prokofiev & Weill- Works for Violin & Piano\20 - Visions fugitives, Op. 22 (arr. V. Derewianko for violin and piano)- VI. Con eleganza.wav

Peak level 26.5 %
Extraction speed 2.3 X
Track quality 100.0 %
Test CRC A680E73C
Copy CRC A680E73C
Track not present in AccurateRip database
Copy OK

Track 21

Filename F:\EAC\Benjamin Schmid, Lisa Smirnova - 2015 - Shostakovich, Prokofiev & Weill- Works for Violin & Piano\21 - Visions fugitives, Op. 22 (arr. V. Derewianko for violin and piano)- VII. Pittoresco.wav

Peak level 43.4 %
Extraction speed 1.9 X
Track quality 99.9 %
Test CRC 2AB895D9
Copy CRC 2AB895D9
Track not present in AccurateRip database
Copy OK

Track 22

Filename F:\EAC\Benjamin Schmid, Lisa Smirnova - 2015 - Shostakovich, Prokofiev & Weill- Works for Violin & Piano\22 - Visions fugitives, Op. 22 (Arr. V. Derewianko For Violin And Piano)- VIII. Commodo.wav

Peak level 45.0 %
Extraction speed 1.7 X
Track quality 99.8 %
Test CRC D88EE55E
Copy CRC D88EE55E
Track not present in AccurateRip database
Copy OK

Track 23

Filename F:\EAC\Benjamin Schmid, Lisa Smirnova - 2015 - Shostakovich, Prokofiev & Weill- Works for Violin & Piano\23 - Visions fugitives, Op. 22 (arr. V. Derewianko for violin and piano)- IX. Allegretto tranquillo.wav

Peak level 66.6 %
Extraction speed 2.8 X
Track quality 100.0 %
Test CRC D785D4B9
Copy CRC D785D4B9
Track not present in AccurateRip database
Copy OK

Track 24

Filename F:\EAC\Benjamin Schmid, Lisa Smirnova - 2015 - Shostakovich, Prokofiev & Weill- Works for Violin & Piano\24 - Visions fugitives, Op. 22 (arr. V. Derewianko for violin and piano)- X. Ridicolosamente.wav

Peak level 69.2 %
Extraction speed 1.3 X
Track quality 99.8 %
Test CRC 76DC6C91
Copy CRC 76DC6C91
Track not present in AccurateRip database
Copy OK

Track 25

Filename F:\EAC\Benjamin Schmid, Lisa Smirnova - 2015 - Shostakovich, Prokofiev & Weill- Works for Violin & Piano\25 - Visions fugitives, Op. 22 (arr. V. Derewianko for violin and piano)- XI. Con vivacita.wav

Peak level 61.0 %
Extraction speed 1.6 X
Track quality 99.8 %
Test CRC B8A08EC7
Copy CRC B8A08EC7
Track not present in AccurateRip database
Copy OK

Track 26

Filename F:\EAC\Benjamin Schmid, Lisa Smirnova - 2015 - Shostakovich, Prokofiev & Weill- Works for Violin & Piano\26 - Visions fugitives, Op. 22 (arr. V. Derewianko for violin and piano)- XII. Assai moderato.wav

Peak level 55.3 %
Extraction speed 1.5 X
Track quality 99.8 %
Test CRC 8748F0D8
Copy CRC 8748F0D8
Track not present in AccurateRip database
Copy OK

Track 27

Filename F:\EAC\Benjamin Schmid, Lisa Smirnova - 2015 - Shostakovich, Prokofiev & Weill- Works for Violin & Piano\27 - Visions fugitives, Op. 22 (Arr. V. Derewianko For Violin And Piano)- XIII. Allegretto.wav

Peak level 39.6 %
Extraction speed 2.7 X
Track quality 100.0 %
Test CRC 2048BF49
Copy CRC 2048BF49
Track not present in AccurateRip database
Copy OK

Track 28

Filename F:\EAC\Benjamin Schmid, Lisa Smirnova - 2015 - Shostakovich, Prokofiev & Weill- Works for Violin & Piano\28 - Visions fugitives, Op. 22 (arr. V. Derewianko for violin and piano)- XIV. Feroce.wav

Peak level 91.0 %
Extraction speed 3.0 X
Track quality 100.0 %
Test CRC 17F21E1E
Copy CRC 17F21E1E
Track not present in AccurateRip database
Copy OK

Track 29

Filename F:\EAC\Benjamin Schmid, Lisa Smirnova - 2015 - Shostakovich, Prokofiev & Weill- Works for Violin & Piano\29 - Visions fugitives, Op. 22 (arr. V. Derewianko for violin and piano)- XV. Inquieto.wav

Peak level 72.9 %
Extraction speed 2.8 X
Track quality 100.0 %
Test CRC 0D82E28A
Copy CRC 0D82E28A
Track not present in AccurateRip database
Copy OK

Track 30

Filename F:\EAC\Benjamin Schmid, Lisa Smirnova - 2015 - Shostakovich, Prokofiev & Weill- Works for Violin & Piano\30 - Visions fugitives, Op. 22 (arr. V. Derewianko for violin and piano)- XVI. Dolente.wav

Peak level 50.6 %
Extraction speed 2.1 X
Track quality 99.9 %
Test CRC 32CA42E0
Copy CRC 32CA42E0
Track not present in AccurateRip database
Copy OK

Track 31

Filename F:\EAC\Benjamin Schmid, Lisa Smirnova - 2015 - Shostakovich, Prokofiev & Weill- Works for Violin & Piano\31 - Visions fugitives, Op. 22 (Arr. V. Derewianko For Violin And Piano)- XVII. Poetico.wav

Peak level 21.5 %
Extraction speed 3.3 X
Track quality 100.0 %
Test CRC 249CBB02
Copy CRC 249CBB02
Track not present in AccurateRip database
Copy OK

Track 32

Filename F:\EAC\Benjamin Schmid, Lisa Smirnova - 2015 - Shostakovich, Prokofiev & Weill- Works for Violin & Piano\32 - Visions fugitives, Op. 22 (Arr. V. Derewianko For Violin And Piano)- XVIII. Con Una Dolce Lentezza.wav

Peak level 49.8 %
Extraction speed 3.2 X
Track quality 100.0 %
Test CRC DFE3CF0C
Copy CRC DFE3CF0C
Track not present in AccurateRip database
Copy OK

Track 33

Filename F:\EAC\Benjamin Schmid, Lisa Smirnova - 2015 - Shostakovich, Prokofiev & Weill- Works for Violin & Piano\33 - Visions fugitives, Op. 22 (arr. V. Derewianko for violin and piano)- XIX. Presto agitatissimo e molto accentuato.wav

Peak level 75.1 %
Extraction speed 2.7 X
Track quality 100.0 %
Test CRC 6247A854
Copy CRC 6247A854
Track not present in AccurateRip database
Copy OK

Track 34

Filename F:\EAC\Benjamin Schmid, Lisa Smirnova - 2015 - Shostakovich, Prokofiev & Weill- Works for Violin & Piano\34 - Visions fugitives, Op. 22 (arr. V. Derewianko for violin and piano)- XX. Lento irrealmente.wav

Peak level 29.3 %
Extraction speed 3.8 X
Track quality 100.0 %
Test CRC A56B996B
Copy CRC A56B996B
Track not present in AccurateRip database
Copy OK

Track 35

Filename F:\EAC\Benjamin Schmid, Lisa Smirnova - 2015 - Shostakovich, Prokofiev & Weill- Works for Violin & Piano\35 - 7 Stucke nach der Dreigroschenoper (arr. S. Frenkel)- No. 1. Moritat vom Mackie Messer (The Ballad of Mack the Knife).wav

Peak level 67.3 %
Extraction speed 4.2 X
Track quality 100.0 %
Test CRC 53FE0C83
Copy CRC 53FE0C83
Track not present in AccurateRip database
Copy OK

Track 36

Filename F:\EAC\Benjamin Schmid, Lisa Smirnova - 2015 - Shostakovich, Prokofiev & Weill- Works for Violin & Piano\36 - 7 Stucke nach der Dreigroschenoper (arr. S. Frenkel)- No. 2. Ruf aus der Gruft (Call from the Grave).wav

Peak level 61.4 %
Extraction speed 3.2 X
Track quality 100.0 %
Test CRC B680450C
Copy CRC B680450C
Track not present in AccurateRip database
Copy OK

Track 37

Filename F:\EAC\Benjamin Schmid, Lisa Smirnova - 2015 - Shostakovich, Prokofiev & Weill- Works for Violin & Piano\37 - 7 Stucke nach der Dreigroschenoper (arr. S. Frenkel)- No. 3. Ballade vom angenehmen Leben (The Ballad of Pleasant Living).wav

Peak level 79.0 %
Extraction speed 2.5 X
Track quality 99.9 %
Test CRC 427289D1
Copy CRC 427289D1
Track not present in AccurateRip database
Copy OK

Track 38

Filename F:\EAC\Benjamin Schmid, Lisa Smirnova - 2015 - Shostakovich, Prokofiev & Weill- Works for Violin & Piano\38 - 7 Stucke nach der Dreigroschenoper (arr. S. Frenkel)- No. 4. Pollys Lied (Polly's Song).wav

Peak level 29.7 %
Extraction speed 3.9 X
Track quality 100.0 %
Test CRC E42AB34A
Copy CRC E42AB34A
Track not present in AccurateRip database
Copy OK

Track 39

Filename F:\EAC\Benjamin Schmid, Lisa Smirnova - 2015 - Shostakovich, Prokofiev & Weill- Works for Violin & Piano\39 - 7 Stucke nach der Dreigroschenoper (arr. S. Frenkel)- No. 5. Zuhalterballade (The Procurer's Ballad).wav

Peak level 80.1 %
Extraction speed 3.9 X
Track quality 100.0 %
Test CRC A2657030
Copy CRC A2657030
Track not present in AccurateRip database
Copy OK

Track 40

Filename F:\EAC\Benjamin Schmid, Lisa Smirnova - 2015 - Shostakovich, Prokofiev & Weill- Works for Violin & Piano\40 - 7 Stucke nach der Dreigroschenoper (arr. S. Frenkel)- No. 6. Seerauberjenny (Pirate Jenny).wav

Peak level 63.3 %
Extraction speed 1.9 X
Track quality 99.8 %
Test CRC AF3D6CEE
Copy CRC AF3D6CEE
Track not present in AccurateRip database
Copy OK

Track 41

Filename F:\EAC\Benjamin Schmid, Lisa Smirnova - 2015 - Shostakovich, Prokofiev & Weill- Works for Violin & Piano\41 - 7 Stucke nach der Dreigroschenoper (arr. S. Frenkel)- No. 7. Kanonensong (Cannon Song).wav

Peak level 78.1 %
Extraction speed 4.2 X
Track quality 100.0 %
Test CRC 19F7724B
Copy CRC 19F7724B
Track not present in AccurateRip database
Copy OK


None of the tracks are present in the AccurateRip database

No errors occurred

End of status report

==== Log checksum EF202C851E18CA8862B2EF02AFC4EFB34F1AE2073E2E223774ED4216C33984DA ====



Thanks to the original releaser
Download:

Nitroflare: FLAC | MP3
Uploadable: FLAC | MP3