Subcategories

Benji Kirkpatrick - Hendrix Songs (2015)

Posted By: v3122
Benji Kirkpatrick - Hendrix Songs (2015)

Benji Kirkpatrick - Hendrix Songs (2015)
EAC | Flac(Image) + Cue + Log & MP3 CBR 320Kbps
EDJ Records, EDJ 020 | ~ 212 or 90 Mb | Scans Included
Folk Rock

Benji Kirkpatrick - founder member of big band folk behemoth 'Bellowhead' and power folk trio 'Faustus' - is a massive fan of Jimi Hendrix. Though immersed in folk tradition and a stalwart of the folk scene, Benji now takes the songs of Jimi Hendrix and re-interprets them; stripping back the layers of guitar, the psychedelia, the era and bringing the songs out in their pure form. For behind the axe wielding antics associated with Hendrix there are great songs and Benji aims to distil these into a completely acoustic setting. Leaving behind the guitar altogether (Hendrix did that rather well…), Benji tackles this material on bouzouki, banjo and mandolin, creating a unique approach and sound for these songs. Always respectful of the originals, whilst continuingly looking for a new angle Benji performs the songs of Hendrix like you've never heard them before.

~ amazon
John Hackett - Another Life (2015):

Benji Kirkpatrick - Hendrix Songs (2015)

Tracklist:

01. Angel 03:22
02. Voodoo Child (Slight Return) 03:39
03. Wind Cries Mary 03:35
04. Foxy Lady 02:39
05. Crosstown Traffic 03:36
06. Red House 02:17
07. Hear My Train A Comin' 04:06
08. May This Be Love 02:38
09. Purple Haze 01:45
10. Stone Free 03:31
11. Burning Of The Midnight Lamp 03:25
12. Little Wing 02:00

Exact Audio Copy V1.0 beta 3 from 29. August 2011

EAC extraction logfile from 6. February 2016, 15:16

Benji Kirkpatrick / Hendrix Songs

Used drive : HL-DT-STDVDRAM GH24NSB0 Adapter: 0 ID: 0

Read mode : Secure
Utilize accurate stream : Yes
Defeat audio cache : Yes
Make use of C2 pointers : No

Read offset correction : 6
Overread into Lead-In and Lead-Out : No
Fill up missing offset samples with silence : Yes
Delete leading and trailing silent blocks : No
Null samples used in CRC calculations : Yes
Used interface : Native Win32 interface for Win NT & 2000
Gap handling : Appended to previous track

Used output format : User Defined Encoder
Selected bitrate : 896 kBit/s
Quality : High
Add ID3 tag : No
Command line compressor : C:\Program Files (x86)\Exact Audio Copy\FLAC\FLAC.EXE
Additional command line options : -8 -V -T "ARTIST=%artist%" -T "TITLE=%title%" -T "ALBUM=%albumtitle%" -T "DATE=%year%" -T "TRACKNUMBER=%tracknr%" -T "GENRE=%genre%" -T "COMMENT=%comment%" -T "BAND=%albuminterpret%" -T "ALBUMARTIST=%albuminterpret%" -T "COMPOSER=%composer%" %haslyrics%–tag-from-file=LYRICS="%lyricsfile%"%haslyrics% -T "DISCNUMBER=%cdnumber%" -T "TOTALDISCS=%totalcds%" -T "TOTALTRACKS=%numtracks%" %hascover%–picture="%coverfile%"%hascover% %source% -o %dest%


TOC of the extracted CD

Track | Start | Length | Start sector | End sector
––––––––––––––––––––––––––––-
1 | 0:00.00 | 3:22.00 | 0 | 15149
2 | 3:22.00 | 3:38.69 | 15150 | 31568
3 | 7:00.69 | 3:34.65 | 31569 | 47683
4 | 10:35.59 | 2:39.25 | 47684 | 59633
5 | 13:15.09 | 3:36.13 | 59634 | 75846
6 | 16:51.22 | 2:17.24 | 75847 | 86145
7 | 19:08.46 | 4:06.17 | 86146 | 104612
8 | 23:14.63 | 2:38.16 | 104613 | 116478
9 | 25:53.04 | 1:45.08 | 116479 | 124361
10 | 27:38.12 | 3:31.33 | 124362 | 140219
11 | 31:09.45 | 3:24.46 | 140220 | 155565
12 | 34:34.16 | 1:59.47 | 155566 | 164537


Track 1

Filename D:\New Rips\Benji Kirkpatrick - Hendrix Songs (2015) [FLAC]\01 - Angel.wav

Pre-gap length 0:00:02.00

Peak level 72.9 %
Extraction speed 1.7 X
Track quality 100.0 %
Test CRC 32BEB636
Copy CRC 32BEB636
Track not present in AccurateRip database
Copy OK

Track 2

Filename D:\New Rips\Benji Kirkpatrick - Hendrix Songs (2015) [FLAC]\02 - Voodoo Child.wav

Pre-gap length 0:00:02.00

Peak level 69.3 %
Extraction speed 1.9 X
Track quality 100.0 %
Test CRC A5FC4D39
Copy CRC A5FC4D39
Track not present in AccurateRip database
Copy OK

Track 3

Filename D:\New Rips\Benji Kirkpatrick - Hendrix Songs (2015) [FLAC]\03 - Wind Cries Mary.wav

Pre-gap length 0:00:03.00

Peak level 90.7 %
Extraction speed 2.0 X
Track quality 100.0 %
Test CRC 8C651C38
Copy CRC 8C651C38
Track not present in AccurateRip database
Copy OK

Track 4

Filename D:\New Rips\Benji Kirkpatrick - Hendrix Songs (2015) [FLAC]\04 - Foxy Lady.wav

Pre-gap length 0:00:03.00

Peak level 72.7 %
Extraction speed 1.4 X
Track quality 99.9 %
Test CRC ECA9DA82
Copy CRC ECA9DA82
Track not present in AccurateRip database
Copy OK

Track 5

Filename D:\New Rips\Benji Kirkpatrick - Hendrix Songs (2015) [FLAC]\05 - Crosstown Traffic.wav

Pre-gap length 0:00:02.00

Peak level 96.4 %
Extraction speed 2.3 X
Track quality 100.0 %
Test CRC 06460518
Copy CRC 06460518
Track not present in AccurateRip database
Copy OK

Track 6

Filename D:\New Rips\Benji Kirkpatrick - Hendrix Songs (2015) [FLAC]\06 - Red House.wav

Pre-gap length 0:00:02.00

Peak level 66.9 %
Extraction speed 2.2 X
Track quality 100.0 %
Test CRC 30406E0A
Copy CRC 30406E0A
Track not present in AccurateRip database
Copy OK

Track 7

Filename D:\New Rips\Benji Kirkpatrick - Hendrix Songs (2015) [FLAC]\07 - Hear My Train A Comin'.wav

Pre-gap length 0:00:02.00

Peak level 80.1 %
Extraction speed 2.5 X
Track quality 100.0 %
Test CRC E6C1D791
Copy CRC E6C1D791
Track not present in AccurateRip database
Copy OK

Track 8

Filename D:\New Rips\Benji Kirkpatrick - Hendrix Songs (2015) [FLAC]\08 - May This Be Love.wav

Pre-gap length 0:00:03.62

Peak level 86.5 %
Extraction speed 2.5 X
Track quality 100.0 %
Test CRC E4BAE367
Copy CRC E4BAE367
Track not present in AccurateRip database
Copy OK

Track 9

Filename D:\New Rips\Benji Kirkpatrick - Hendrix Songs (2015) [FLAC]\09 - Purple Haze.wav

Pre-gap length 0:00:01.74

Peak level 66.7 %
Extraction speed 2.4 X
Track quality 100.0 %
Test CRC C28A7CB0
Copy CRC C28A7CB0
Track not present in AccurateRip database
Copy OK

Track 10

Filename D:\New Rips\Benji Kirkpatrick - Hendrix Songs (2015) [FLAC]\10 - Stone Free.wav

Pre-gap length 0:00:01.47

Peak level 85.3 %
Extraction speed 2.8 X
Track quality 100.0 %
Test CRC 1A0BCC19
Copy CRC 1A0BCC19
Track not present in AccurateRip database
Copy OK

Track 11

Filename D:\New Rips\Benji Kirkpatrick - Hendrix Songs (2015) [FLAC]\11 - Burning Of The Midnight Lamp.wav

Pre-gap length 0:00:02.00

Peak level 95.3 %
Extraction speed 2.9 X
Track quality 100.0 %
Test CRC CABA4B57
Copy CRC CABA4B57
Track not present in AccurateRip database
Copy OK

Track 12

Filename D:\New Rips\Benji Kirkpatrick - Hendrix Songs (2015) [FLAC]\12 - Little Wing.wav

Pre-gap length 0:00:05.03

Peak level 75.9 %
Extraction speed 2.7 X
Track quality 100.0 %
Test CRC D889D2E4
Copy CRC D889D2E4
Track not present in AccurateRip database
Copy OK


None of the tracks are present in the AccurateRip database

No errors occurred

End of status report

==== Log checksum 3A19E347A49D31C9FFA174007C9BEF3134DC0F1D22C5F6C177BCD3E4EA101E0D ====

foobar2000 1.2.9 / Dynamic Range Meter 1.1.1
log date: 2016-02-23 18:12:51

––––––––––––––––––––––––––––––––––––––––
Analyzed: Benji Kirkpatrick / Hendrix Songs
––––––––––––––––––––––––––––––––––––––––

DR Peak RMS Duration Track
––––––––––––––––––––––––––––––––––––––––
DR12 -2.74 dB -18.44 dB 3:22 01-Angel
DR11 -3.18 dB -18.04 dB 3:39 02-Voodoo Child
DR14 -0.84 dB -18.06 dB 3:35 03-Wind Cries Mary
DR12 -2.76 dB -18.15 dB 2:39 04-Foxy Lady
DR15 -0.32 dB -18.38 dB 3:36 05-Crosstown Traffic
DR11 -3.49 dB -18.20 dB 2:17 06-Red House
DR13 -1.92 dB -18.51 dB 4:06 07-Hear My Train A Comin'
DR13 -1.25 dB -18.41 dB 2:38 08-May This Be Love
DR12 -3.51 dB -18.01 dB 1:45 09-Purple Haze
DR13 -1.37 dB -18.33 dB 3:31 10-Stone Free
DR13 -0.42 dB -18.64 dB 3:25 11-Burning Of The Midnight Lamp
DR12 -2.38 dB -18.48 dB 2:00 12-Little Wing
––––––––––––––––––––––––––––––––––––––––

Number of tracks: 12
Official DR value: DR13

Samplerate: 44100 Hz
Channels: 2
Bits per sample: 16
Bitrate: 760 kbps
Codec: FLAC

[CUETools log; Date: 23.02.2016 18:13:06; Version: 2.1.4]
[CTDB TOCID: grVEGVj_HMHzSwuzJKp_X6obSB8-] found.
Track | CTDB Status
1 | (1/1) Accurately ripped
2 | (1/1) Accurately ripped
3 | (1/1) Accurately ripped
4 | (1/1) Accurately ripped
5 | (1/1) Accurately ripped
6 | (1/1) Accurately ripped
7 | (1/1) Accurately ripped
8 | (1/1) Accurately ripped
9 | (1/1) Accurately ripped
10 | (1/1) Accurately ripped
11 | (1/1) Accurately ripped
12 | (1/1) Accurately ripped
[AccurateRip ID: 00111e10-009dea03-9308910c] disk not present in database.

Track Peak [ CRC32 ] [W/O NULL] [ LOG ]
– 96,4 [397907E8] [61816A2E]
01 72,9 [32BEB636] [1AAAB10C] CRC32
02 69,3 [A5FC4D39] [5A7659E7] CRC32
03 90,7 [8C651C38] [49B01F6F] CRC32
04 72,7 [ECA9DA82] [6A348763] CRC32
05 96,4 [06460518] [5512985F] CRC32
06 66,9 [30406E0A] [48340289] CRC32
07 80,1 [E6C1D791] [5ED7CA67] CRC32
08 86,5 [E4BAE367] [9CAA33EA] CRC32
09 66,7 [C28A7CB0] [18657A2F] CRC32
10 85,3 [1A0BCC19] [947F1FF9] CRC32
11 95,3 [CABA4B57] [202FF01D] CRC32
12 75,9 [D889D2E4] [1C7B9391] CRC32

Benji Kirkpatrick - Hendrix Songs (2015)

All thanks go to Liesabath

Download Benji Kirkpatrick - Hendrix Songs (2015):