Subcategories

Bernard Herrmann - The 7th Voyage of Sinbad (1958) The Complete Original Soundtrack Recording, Remastered Limited Edition 2009

Posted By: Efgrapha
Bernard Herrmann - The 7th Voyage of Sinbad (1958) The Complete Original Soundtrack Recording, Remastered Limited Edition 2009

Bernard Herrmann - The 7th Voyage of Sinbad (1958) 2CD Set
The Complete Original Soundtrack Recording, Remastered Limited Edition 2009

EAC | FLAC (Tracks) + cue.+log ~ 515 Mb | Mp3, CBR320 kbps ~ 246 Mb | Scans ~ 73 Mb
Soundtrack, Score | Label: Prometheus Records | # XPCD 166 | Time: 01:45:35

This 2-disc release of Herrmann's first score for Harryhausen is a lavish delight. Firstly, both discs are presented in full stereophonic sound - the full-bodied monaural descriptor being entirely wrong for the disc-1 complete score. This presentation utilizes the same remastered music stems that the Sony blu-ray disc offers, and is sonically splendid. The second disc is the original soundtrack album re-recording, all stereo except one track, and it's the familiar version that's been a collector's item for many years. The soundtrack album was conducted by Muir Mathieson, and contrary to Herrmann's opinion of it, it's a robust presentation of the original score. A masterpiece, right up there with the likes of Moross' THE BIG COUNTRY, North's SPARTACUS, Rosza's EL CID, and Jarre's LAWRENCE OF ARABIA.

Review by Gary Vidmar

This double-CD set is almost too good to be true – and well it should be, as it draws upon a body of music that also fits into that category. Bernard Herrmann's music for Ray Harryhausen's The 7th Voyage of Sinbad was the first piece of orchestral film music that a lot of baby boomers ever noticed as orchestral music (as distinct from orchestrations of familiar traditional tunes and pieces such as the "William Tell Overture," which could be heard [and, indeed, was best known] in a non-musical context). That was not only because of the movie to which it was attached, the definitive fantasy film of its period (and, arguably, the whole post-war period), but also because of its merits as music. Herrmann's music for this film was not only one of the two best fantasy film scores ever written (the other being Miklos Rozsa's music for Alexander Korda's 1940 The Thief of Bagdad), but, like the Rozsa score, was good enough to stand on its own as music, right alongside Rimsky-Korsakov's Scheherazade (to which, in fairness, it should be stated, both it and the Rozsa score owe something). The makers of this CD set have assembled every finished note of music that Herrmann composed and conducted for use in the actual film, including the original stereo film tracks themselves, heard free-standing for the first time and unedited; and that means that disc one contains some 70 minutes of Bernard Herrmann material that is new to the audio format and heard for the first time on its own terms. And it holds up beautifully, the textures astonishingly vivid on the 51-year-old source materials, and the sound clean and bright.

The second disc, running just over half as long, offers Herrmann's official soundtrack album recordings of the same material, from the same period – this was the composer's first opportunity to present his own music on a complete album, and he ran with it, within the budgetary and time constraints set by the producers and the technology. And so the two bodies of work offer a fruitful canvas for comparison, and insights into what parts of his music Herrmann thought most worthy of additional exposure. The audio production is flawless, and the packaging is handsome, while the essay focuses in on the music in absolute terms – one only wishes that there were anecdotal accounts from the sessions, about peoples' reactions to the music. And speaking of the latter, the exposure here of the full score reveals just how often, and in what different forms, Herrmann re-wrote and recycled certain phrases, patterns, and signature marks of his work, in the actual composition as well as the timbres and textures – you'll hear echoes, some distant, of a half-dozen other Herrmann scores both to come and from the past, as well as a good deal of material that was subsequently used on television in the decade that followed. It's all brilliant, and all worthy of multiple listening sessions, across years. And beyond its musicological merits, that Herrmann soundtrack album material is also a special gift to completist collectors of the composer's music, as it has become a serious collector's item since the '80s.

Review by Bruce Eder, Allmusic.com

Bernard Herrmann at Allmusic
Bernard Herrmann at Wiki

Film at IMDB
Film at Wiki

Tracklist:

CD1:

01. Overture / The Fog (03:58)
02. The Princess / The Stone Gate / The Cyclops (06:13)
03. The Trumpets / Bagdad (02:59)
04. Sultan's Feast / The Vase / Cobra Dance (03:34)
05. The Prophecy (01:11)
06. The Pool / Night Magic (02:10)
07. Tiny Princess (02:04)
08. Street Music (01:14)
09. Sinbad and Princess (01:42)
10. The Ship / The Fight (03:00)
11. The Return (01:10)
12. The Skull (01:29)
13. The Club (01:05)
14. The Cave (00:50)
15. The Capture (00:45)
16. Captured - Part II (00:48)
17. In Cage (00:59)
18. The Latch (02:01)
19. The Fight With The Cyclops / Cyclops' Death (03:04)
20. The Cliffs (01:02)
21. The Egg (01:18)
22. The Request / The Genie's Home / The Fight With The Roc / The Nest / The Dragon (11:38)
23. Door Slam (01:12)
24. Transformation (02:52)
25. The Skeleton / The Duel With the Skeleton / The Sword (02:53)
26. Dragon and Cyclops / The Crossbow / The Death of the Dragon / Finale (08:44)

CD2:

01. Overture / Bagdad (03:50)
02. Sultan's Feast / The Vase / Cobra Dance (02:33)
03. The Cyclops (03:36)
04. Night Magic / Tiny Princess : Street Music (03:34)
05. The Flight / The Battle With the Cyclops (03:16)
06. The Roc / The Nest (04:09)
07. The Dragon (02:13)
08. Transformation (02:02)
09. The Skeleton / The Duel With the Skeleton / The Sword (02:54)
10. The Death of the Cyclops / The Crossbow / The Death of the Dragon (03:20)
11. Finale (02:19)
12. Overture (Long Version) (01:54)


Exact Audio Copy V1.0 beta 3 from 29. August 2011

EAC extraction logfile from 10. July 2012, 18:38

Bernard Herrmann / The 7th Voyage of Sinbad [CD1]

Used drive : PLEXTOR DVDR PX-L890SA Adapter: 1 ID: 1

Read mode : Secure
Utilize accurate stream : Yes
Defeat audio cache : Yes
Make use of C2 pointers : No

Read offset correction : 6
Overread into Lead-In and Lead-Out : No
Fill up missing offset samples with silence : Yes
Delete leading and trailing silent blocks : No
Null samples used in CRC calculations : Yes
Used interface : Installed external ASPI interface
Gap handling : Appended to previous track

Used output format : User Defined Encoder
Selected bitrate : 1024 kBit/s
Quality : High
Add ID3 tag : No
Command line compressor : C:\Program Files\Exact Audio Copy\Flac\flac.exe
Additional command line options : -V -8 -T "Genre=%genre%" -T "Artist=%artist%" -T "Title=%title%" -T "Album=%albumtitle%" -T "Date=%year%" -T "Tracknumber=%tracknr%" -T "Comment=%comment%" %source%


TOC of the extracted CD

Track | Start | Length | Start sector | End sector
––––––––––––––––––––––––––––-
1 | 0:00.00 | 4:00.11 | 0 | 18010
2 | 4:00.11 | 6:15.49 | 18011 | 46184
3 | 10:15.60 | 3:01.49 | 46185 | 59808
4 | 13:17.34 | 3:36.37 | 59809 | 76045
5 | 16:53.71 | 1:13.39 | 76046 | 81559
6 | 18:07.35 | 2:12.01 | 81560 | 91460
7 | 20:19.36 | 2:06.42 | 91461 | 100952
8 | 22:26.03 | 1:16.42 | 100953 | 106694
9 | 23:42.45 | 1:44.34 | 106695 | 114528
10 | 25:27.04 | 3:02.12 | 114529 | 128190
11 | 28:29.16 | 1:12.66 | 128191 | 133656
12 | 29:42.07 | 1:31.68 | 133657 | 140549
13 | 31:14.00 | 1:07.49 | 140550 | 145623
14 | 32:21.49 | 0:52.56 | 145624 | 149579
15 | 33:14.30 | 0:47.39 | 149580 | 153143
16 | 34:01.69 | 0:50.48 | 153144 | 156941
17 | 34:52.42 | 1:01.41 | 156942 | 161557
18 | 35:54.08 | 2:03.03 | 161558 | 170785
19 | 37:57.11 | 3:06.59 | 170786 | 184794
20 | 41:03.70 | 1:04.50 | 184795 | 189644
21 | 42:08.45 | 1:20.28 | 189645 | 195672
22 | 43:28.73 | 11:40.72 | 195673 | 248244
23 | 55:09.70 | 1:14.10 | 248245 | 253804
24 | 56:24.05 | 2:54.54 | 253805 | 266908
25 | 59:18.59 | 2:55.53 | 266909 | 280086
26 | 62:14.37 | 8:44.36 | 280087 | 319422


Track 1

Filename F:\torrent\The 7th Voyage Of Sinbad_Bernard Herrmann\CD1\01 Overture , The Fog.wav

Pre-gap length 0:00:02.00

Peak level 97.8 %
Extraction speed 5.2 X
Track quality 100.0 %
Test CRC DAAF4ECF
Copy CRC DAAF4ECF
Accurately ripped (confidence 8) [C3862FF1] (AR v1)
Copy OK

Track 2

Filename F:\torrent\The 7th Voyage Of Sinbad_Bernard Herrmann\CD1\02 The Princess.wav

Pre-gap length 0:00:02.00

Peak level 98.3 %
Extraction speed 6.2 X
Track quality 100.0 %
Test CRC 00FB2A7C
Copy CRC 00FB2A7C
Accurately ripped (confidence 8) [F6DD4D11] (AR v1)
Copy OK

Track 3

Filename F:\torrent\The 7th Voyage Of Sinbad_Bernard Herrmann\CD1\03 The Trumpets.wav

Pre-gap length 0:00:02.00

Peak level 68.5 %
Extraction speed 6.1 X
Track quality 100.0 %
Test CRC 02CBA869
Copy CRC 02CBA869
Accurately ripped (confidence 8) [A5B02883] (AR v1)
Copy OK

Track 4

Filename F:\torrent\The 7th Voyage Of Sinbad_Bernard Herrmann\CD1\04 Sultan's Feast.wav

Pre-gap length 0:00:02.00

Peak level 69.9 %
Extraction speed 6.6 X
Track quality 100.0 %
Test CRC E1FF261F
Copy CRC E1FF261F
Accurately ripped (confidence 8) [D5D3B8D8] (AR v1)
Copy OK

Track 5

Filename F:\torrent\The 7th Voyage Of Sinbad_Bernard Herrmann\CD1\05 The Prophecy.wav

Pre-gap length 0:00:02.00

Peak level 89.7 %
Extraction speed 5.2 X
Track quality 100.0 %
Test CRC 8A980ED0
Copy CRC 8A980ED0
Accurately ripped (confidence 8) [09A023D8] (AR v1)
Copy OK

Track 6

Filename F:\torrent\The 7th Voyage Of Sinbad_Bernard Herrmann\CD1\06 The Pool , Night Magic.wav

Pre-gap length 0:00:02.00

Peak level 52.9 %
Extraction speed 6.4 X
Track quality 100.0 %
Test CRC B53FDA0E
Copy CRC B53FDA0E
Accurately ripped (confidence 8) [983CBA7C] (AR v1)
Copy OK

Track 7

Filename F:\torrent\The 7th Voyage Of Sinbad_Bernard Herrmann\CD1\07 Tiny Princess.wav

Pre-gap length 0:00:02.00

Peak level 65.3 %
Extraction speed 6.5 X
Track quality 100.0 %
Test CRC 53A35F12
Copy CRC 53A35F12
Accurately ripped (confidence 8) [FDB9C098] (AR v1)
Copy OK

Track 8

Filename F:\torrent\The 7th Voyage Of Sinbad_Bernard Herrmann\CD1\08 Street Music.wav

Pre-gap length 0:00:02.00

Peak level 31.8 %
Extraction speed 5.7 X
Track quality 100.0 %
Test CRC 8FB91796
Copy CRC 8FB91796
Accurately ripped (confidence 8) [5A0D9B15] (AR v1)
Copy OK

Track 9

Filename F:\torrent\The 7th Voyage Of Sinbad_Bernard Herrmann\CD1\09 Sinbad And Princess.wav

Pre-gap length 0:00:02.00

Peak level 47.1 %
Extraction speed 6.4 X
Track quality 100.0 %
Test CRC 2C4895DA
Copy CRC 2C4895DA
Accurately ripped (confidence 8) [E95EAB9B] (AR v1)
Copy OK

Track 10

Filename F:\torrent\The 7th Voyage Of Sinbad_Bernard Herrmann\CD1\10 The Ship , The Fight.wav

Pre-gap length 0:00:02.00

Peak level 96.1 %
Extraction speed 7.4 X
Track quality 100.0 %
Test CRC 0AE16FF9
Copy CRC 0AE16FF9
Accurately ripped (confidence 8) [8FC2AF92] (AR v1)
Copy OK

Track 11

Filename F:\torrent\The 7th Voyage Of Sinbad_Bernard Herrmann\CD1\11 The Return.wav

Pre-gap length 0:00:02.00

Peak level 61.1 %
Extraction speed 6.1 X
Track quality 100.0 %
Test CRC 1AA9BD0E
Copy CRC 1AA9BD0E
Accurately ripped (confidence 8) [4740BF9D] (AR v1)
Copy OK

Track 12

Filename F:\torrent\The 7th Voyage Of Sinbad_Bernard Herrmann\CD1\12 The Skull.wav

Pre-gap length 0:00:02.00

Peak level 38.3 %
Extraction speed 6.6 X
Track quality 100.0 %
Test CRC 2D650B06
Copy CRC 2D650B06
Accurately ripped (confidence 8) [C65A7FE8] (AR v1)
Copy OK

Track 13

Filename F:\torrent\The 7th Voyage Of Sinbad_Bernard Herrmann\CD1\13 The Club.wav

Pre-gap length 0:00:02.00

Peak level 55.2 %
Extraction speed 6.0 X
Track quality 100.0 %
Test CRC EB0D2C4F
Copy CRC EB0D2C4F
Accurately ripped (confidence 8) [4C372867] (AR v1)
Copy OK

Track 14

Filename F:\torrent\The 7th Voyage Of Sinbad_Bernard Herrmann\CD1\14 The Cave.wav

Pre-gap length 0:00:02.00

Peak level 79.9 %
Extraction speed 5.6 X
Track quality 100.0 %
Test CRC 4393E66E
Copy CRC 4393E66E
Accurately ripped (confidence 8) [311B39F7] (AR v1)
Copy OK

Track 15

Filename F:\torrent\The 7th Voyage Of Sinbad_Bernard Herrmann\CD1\15 The Capture.wav

Pre-gap length 0:00:02.00

Peak level 84.0 %
Extraction speed 5.3 X
Track quality 100.0 %
Test CRC 736F8CFB
Copy CRC 736F8CFB
Accurately ripped (confidence 8) [9B170E56] (AR v1)
Copy OK

Track 16

Filename F:\torrent\The 7th Voyage Of Sinbad_Bernard Herrmann\CD1\16 Captured - Part II.wav

Pre-gap length 0:00:02.00

Peak level 79.4 %
Extraction speed 5.5 X
Track quality 100.0 %
Test CRC 50BCB0AB
Copy CRC 50BCB0AB
Accurately ripped (confidence 8) [CE016856] (AR v1)
Copy OK

Track 17

Filename F:\torrent\The 7th Voyage Of Sinbad_Bernard Herrmann\CD1\17 In Cage.wav

Pre-gap length 0:00:02.00

Peak level 68.9 %
Extraction speed 6.1 X
Track quality 100.0 %
Test CRC 5FCF57CE
Copy CRC 5FCF57CE
Accurately ripped (confidence 8) [E141AFFE] (AR v1)
Copy OK

Track 18

Filename F:\torrent\The 7th Voyage Of Sinbad_Bernard Herrmann\CD1\18 The Latch.wav

Pre-gap length 0:00:02.00

Peak level 54.2 %
Extraction speed 7.6 X
Track quality 100.0 %
Test CRC B9D0660B
Copy CRC B9D0660B
Accurately ripped (confidence 8) [9883B12B] (AR v1)
Copy OK

Track 19

Filename F:\torrent\The 7th Voyage Of Sinbad_Bernard Herrmann\CD1\19 The Fight With The Cyclops.wav

Pre-gap length 0:00:02.00

Peak level 98.8 %
Extraction speed 8.4 X
Track quality 100.0 %
Test CRC FA7D04D9
Copy CRC FA7D04D9
Accurately ripped (confidence 8) [DA433E75] (AR v1)
Copy OK

Track 20

Filename F:\torrent\The 7th Voyage Of Sinbad_Bernard Herrmann\CD1\20 The Cliffs.wav

Pre-gap length 0:00:02.00

Peak level 61.2 %
Extraction speed 6.5 X
Track quality 100.0 %
Test CRC 5E9A58D0
Copy CRC 5E9A58D0
Accurately ripped (confidence 8) [450AAC09] (AR v1)
Copy OK

Track 21

Filename F:\torrent\The 7th Voyage Of Sinbad_Bernard Herrmann\CD1\21 The Egg.wav

Pre-gap length 0:00:02.00

Peak level 63.0 %
Extraction speed 7.1 X
Track quality 100.0 %
Test CRC D5CD3418
Copy CRC D5CD3418
Accurately ripped (confidence 8) [A24E706F] (AR v1)
Copy OK

Track 22

Filename F:\torrent\The 7th Voyage Of Sinbad_Bernard Herrmann\CD1\22 The Request.wav

Pre-gap length 0:00:02.00

Peak level 93.2 %
Extraction speed 10.3 X
Track quality 100.0 %
Test CRC 5A9FF5DA
Copy CRC 5A9FF5DA
Accurately ripped (confidence 8) [7299FB71] (AR v1)
Copy OK

Track 23

Filename F:\torrent\The 7th Voyage Of Sinbad_Bernard Herrmann\CD1\23 Door Slam.wav

Pre-gap length 0:00:02.00

Peak level 48.8 %
Extraction speed 7.5 X
Track quality 100.0 %
Test CRC CCD34B6E
Copy CRC CCD34B6E
Accurately ripped (confidence 8) [C70F14D8] (AR v1)
Copy OK

Track 24

Filename F:\torrent\The 7th Voyage Of Sinbad_Bernard Herrmann\CD1\24 Transformation.wav

Pre-gap length 0:00:02.00

Peak level 70.6 %
Extraction speed 9.4 X
Track quality 100.0 %
Test CRC 1F4FB02D
Copy CRC 1F4FB02D
Accurately ripped (confidence 8) [12A339DB] (AR v1)
Copy OK

Track 25

Filename F:\torrent\The 7th Voyage Of Sinbad_Bernard Herrmann\CD1\25 The Skeleton.wav

Pre-gap length 0:00:02.00

Peak level 79.5 %
Extraction speed 9.6 X
Track quality 100.0 %
Test CRC 5192FCE4
Copy CRC 5192FCE4
Accurately ripped (confidence 8) [F1221B2B] (AR v1)
Copy OK

Track 26

Filename F:\torrent\The 7th Voyage Of Sinbad_Bernard Herrmann\CD1\26 Dragon And Cyclops.wav

Pre-gap length 0:00:02.00

Peak level 98.9 %
Extraction speed 11.3 X
Track quality 100.0 %
Test CRC 7A167C90
Copy CRC 7A167C90
Accurately ripped (confidence 8) [2F7EEBF0] (AR v1)
Copy OK


All tracks accurately ripped

No errors occurred

End of status report

==== Log checksum A0BC9717E1A72CEE7117D02451D35FD119FCF8926A0EA61A79A6C71F61BA5EB5 ====

foobar2000 1.2 / Dynamic Range Meter 1.1.1
log date: 2013-06-26 14:59:10

––––––––––––––––––––––––––––––––––––––––
Analyzed: / The 7th Voyage of Sinbad [CD1]
––––––––––––––––––––––––––––––––––––––––

DR Peak RMS Duration Track
––––––––––––––––––––––––––––––––––––––––
DR13 -0.19 dB -18.37 dB 4:00 01-Overture / The Fog
DR13 -0.15 dB -18.35 dB 6:16 02-The Princess
DR13 -3.29 dB -21.29 dB 3:02 03-The Trumpets
DR13 -3.10 dB -19.06 dB 3:36 04-Sultan's Feast
DR14 -0.94 dB -24.62 dB 1:14 05-The Prophecy
DR12 -5.52 dB -23.39 dB 2:12 06-The Pool / Night Magic
DR13 -3.70 dB -23.25 dB 2:07 07-Tiny Princess
DR14 -9.93 dB -26.35 dB 1:17 08-Street Music
DR10 -6.53 dB -21.85 dB 1:44 09-Sinbad And Princess
DR12 -0.34 dB -16.10 dB 3:02 10-The Ship / The Fight
DR11 -4.28 dB -20.50 dB 1:13 11-The Return
DR9 -8.33 dB -20.12 dB 1:32 12-The Skull
DR11 -5.16 dB -21.26 dB 1:08 13-The Club
DR9 -1.94 dB -19.54 dB 0:53 14-The Cave
DR10 -1.51 dB -15.06 dB 0:48 15-The Capture
DR10 -2.00 dB -15.01 dB 0:51 16-Captured - Part II
DR11 -3.23 dB -20.43 dB 1:02 17-In Cage
DR10 -5.31 dB -23.88 dB 2:03 18-The Latch
DR12 -0.10 dB -15.84 dB 3:07 19-The Fight With The Cyclops
DR11 -4.26 dB -21.86 dB 1:05 20-The Cliffs
DR11 -4.01 dB -21.76 dB 1:20 21-The Egg
DR16 -0.60 dB -21.65 dB 11:41 22-The Request
DR10 -6.22 dB -20.25 dB 1:14 23-Door Slam
DR11 -3.02 dB -18.61 dB 2:55 24-Transformation
DR14 -1.98 dB -19.14 dB 2:56 25-The Skeleton
DR14 -0.09 dB -17.71 dB 8:44 26-Dragon And Cyclops
––––––––––––––––––––––––––––––––––––––––

Number of tracks: 26
Official DR value: DR12

Samplerate: 44100 Hz
Channels: 2
Bits per sample: 16
Bitrate: 650 kbps
Codec: FLAC
================================================================================


Exact Audio Copy V1.0 beta 3 from 29. August 2011

EAC extraction logfile from 21. July 2012, 11:18

Bernard Herrmann / The 7th Voyage of Sinbad [CD2]

Used drive : PLEXTOR DVDR PX-L890SA Adapter: 1 ID: 1

Read mode : Secure
Utilize accurate stream : Yes
Defeat audio cache : Yes
Make use of C2 pointers : No

Read offset correction : 6
Overread into Lead-In and Lead-Out : No
Fill up missing offset samples with silence : Yes
Delete leading and trailing silent blocks : No
Null samples used in CRC calculations : Yes
Used interface : Installed external ASPI interface
Gap handling : Appended to previous track

Used output format : User Defined Encoder
Selected bitrate : 1024 kBit/s
Quality : High
Add ID3 tag : No
Command line compressor : C:\Program Files\Exact Audio Copy\Flac\flac.exe
Additional command line options : -V -8 -T "Genre=%genre%" -T "Artist=%artist%" -T "Title=%title%" -T "Album=%albumtitle%" -T "Date=%year%" -T "Tracknumber=%tracknr%" -T "Comment=%comment%" %source%


TOC of the extracted CD

Track | Start | Length | Start sector | End sector
––––––––––––––––––––––––––––-
1 | 0:00.00 | 3:52.50 | 0 | 17449
2 | 3:52.50 | 2:35.10 | 17450 | 29084
3 | 6:27.60 | 3:38.41 | 29085 | 45475
4 | 10:06.26 | 3:36.07 | 45476 | 61682
5 | 13:42.33 | 3:18.29 | 61683 | 76561
6 | 17:00.62 | 4:11.28 | 76562 | 95414
7 | 21:12.15 | 2:15.60 | 95415 | 105599
8 | 23:28.00 | 2:04.18 | 105600 | 114917
9 | 25:32.18 | 2:56.21 | 114918 | 128138
10 | 28:28.39 | 3:22.60 | 128139 | 143348
11 | 31:51.24 | 2:21.46 | 143349 | 153969
12 | 34:12.70 | 1:54.36 | 153970 | 162555


Track 1

Filename F:\torrent\The 7th Voyage Of Sinbad_Bernard Herrmann\CD2\01 Overture.wav

Pre-gap length 0:00:02.00

Peak level 99.1 %
Extraction speed 5.2 X
Track quality 100.0 %
Test CRC A984362B
Copy CRC A984362B
Accurately ripped (confidence 8) [DB5C03EA] (AR v1)
Copy OK

Track 2

Filename F:\torrent\The 7th Voyage Of Sinbad_Bernard Herrmann\CD2\02 Sultan's Feast.wav

Pre-gap length 0:00:02.00

Peak level 83.4 %
Extraction speed 5.2 X
Track quality 100.0 %
Test CRC 068D5C6A
Copy CRC 068D5C6A
Accurately ripped (confidence 8) [9F8246AE] (AR v1)
Copy OK

Track 3

Filename F:\torrent\The 7th Voyage Of Sinbad_Bernard Herrmann\CD2\03 The Cyclops.wav

Pre-gap length 0:00:02.00

Peak level 97.4 %
Extraction speed 6.0 X
Track quality 100.0 %
Test CRC 455B2A76
Copy CRC 455B2A76
Accurately ripped (confidence 8) [80BDECEE] (AR v1)
Copy OK

Track 4

Filename F:\torrent\The 7th Voyage Of Sinbad_Bernard Herrmann\CD2\04 Night Magic.wav

Pre-gap length 0:00:02.00

Peak level 47.2 %
Extraction speed 5.6 X
Track quality 99.9 %
Test CRC 16C92BDA
Copy CRC 16C92BDA
Accurately ripped (confidence 8) [01BC4AC5] (AR v1)
Copy OK

Track 5

Filename F:\torrent\The 7th Voyage Of Sinbad_Bernard Herrmann\CD2\05 The Flight.wav

Pre-gap length 0:00:02.00

Peak level 95.2 %
Extraction speed 6.6 X
Track quality 100.0 %
Test CRC 6CEEB743
Copy CRC 6CEEB743
Accurately ripped (confidence 8) [2EFC2118] (AR v1)
Copy OK

Track 6

Filename F:\torrent\The 7th Voyage Of Sinbad_Bernard Herrmann\CD2\06 The Roc.wav

Pre-gap length 0:00:02.00

Peak level 92.9 %
Extraction speed 7.3 X
Track quality 100.0 %
Test CRC BC9DDF2F
Copy CRC BC9DDF2F
Accurately ripped (confidence 8) [9BCAA661] (AR v1)
Copy OK

Track 7

Filename F:\torrent\The 7th Voyage Of Sinbad_Bernard Herrmann\CD2\07 The Dragon.wav

Pre-gap length 0:00:02.00

Peak level 99.5 %
Extraction speed 5.6 X
Track quality 99.9 %
Test CRC 03A22310
Copy CRC 03A22310
Accurately ripped (confidence 8) [763BB73D] (AR v1)
Copy OK

Track 8

Filename F:\torrent\The 7th Voyage Of Sinbad_Bernard Herrmann\CD2\08 Transformation.wav

Pre-gap length 0:00:02.00

Peak level 75.0 %
Extraction speed 6.8 X
Track quality 100.0 %
Test CRC D911849A
Copy CRC D911849A
Accurately ripped (confidence 8) [A33542BE] (AR v1)
Copy OK

Track 9

Filename F:\torrent\The 7th Voyage Of Sinbad_Bernard Herrmann\CD2\09 The Skeleton.wav

Pre-gap length 0:00:02.00

Peak level 85.3 %
Extraction speed 6.4 X
Track quality 99.9 %
Test CRC 5E5BBA52
Copy CRC 5E5BBA52
Accurately ripped (confidence 8) [8543DC69] (AR v1)
Copy OK

Track 10

Filename F:\torrent\The 7th Voyage Of Sinbad_Bernard Herrmann\CD2\10 The Death.wav

Pre-gap length 0:00:02.00

Peak level 97.6 %
Extraction speed 8.0 X
Track quality 100.0 %
Test CRC 0AC1BEE5
Copy CRC 0AC1BEE5
Accurately ripped (confidence 8) [3B6B0235] (AR v1)
Copy OK

Track 11

Filename F:\torrent\The 7th Voyage Of Sinbad_Bernard Herrmann\CD2\11 Finale.wav

Pre-gap length 0:00:02.00

Peak level 97.5 %
Extraction speed 7.6 X
Track quality 100.0 %
Test CRC 9B6485DE
Copy CRC 9B6485DE
Accurately ripped (confidence 8) [8E7D2268] (AR v1)
Copy OK

Track 12

Filename F:\torrent\The 7th Voyage Of Sinbad_Bernard Herrmann\CD2\12 Main Title (long).wav

Pre-gap length 0:00:02.00

Peak level 90.1 %
Extraction speed 7.4 X
Track quality 100.0 %
Test CRC FDDC000A
Copy CRC FDDC000A
Accurately ripped (confidence 8) [0FA14F44] (AR v1)
Copy OK


All tracks accurately ripped

No errors occurred

End of status report

==== Log checksum CEA7D4642706F35DCE1D7898AAEA8DADA0541FAA8979A5A9517DBC5C045B2A01 ====

foobar2000 1.2 / Dynamic Range Meter 1.1.1
log date: 2013-06-26 14:59:20

––––––––––––––––––––––––––––––––––––––––
Analyzed: Bernard Herrmann / The 7th Voyage of Sinbad [CD2]
––––––––––––––––––––––––––––––––––––––––

DR Peak RMS Duration Track
––––––––––––––––––––––––––––––––––––––––
DR13 -0.07 dB -17.01 dB 3:53 01-Overture
DR11 -1.57 dB -16.10 dB 2:35 02-Sultan's Feast
DR12 -0.22 dB -15.50 dB 3:39 03-The Cyclops
DR14 -6.50 dB -24.55 dB 3:36 04-Night Magic
DR12 -0.42 dB -14.90 dB 3:18 05-The Flight
DR12 -0.63 dB -18.14 dB 4:11 06-The Roc
DR12 -0.04 dB -16.03 dB 2:16 07-The Dragon
DR11 -2.49 dB -17.56 dB 2:04 08-Transformation
DR12 -1.38 dB -16.27 dB 2:56 09-The Skeleton
DR12 -0.20 dB -16.03 dB 3:23 10-The Death
DR12 -0.21 dB -17.98 dB 2:22 11-Finale
DR9 -0.90 dB -12.80 dB 1:54 12-Main Title (long)
––––––––––––––––––––––––––––––––––––––––

Number of tracks: 12
Official DR value: DR12

Samplerate: 44100 Hz
Channels: 2
Bits per sample: 16
Bitrate: 808 kbps
Codec: FLAC
================================================================================

Bernard Herrmann - The 7th Voyage of Sinbad (1958) The Complete Original Soundtrack Recording, Remastered Limited Edition 2009

Bernard Herrmann - The 7th Voyage of Sinbad (1958) The Complete Original Soundtrack Recording, Remastered Limited Edition 2009