Bernd Noske - Come Out At Night (1999)

Posted By: Andi_Deris
Bernd Noske - Come Out At Night (1999)

Bernd Noske - Come Out At Night (1999)
EAC Rip | FLAC: Image+Cue+Log | 353 Mb | MP3 CBR 320 kbps | 129 Mb | Scans | 71 Mb | Time: 48:32
ZYX Music/Ohr Today | OHR 70043-2
Crossover Prog/Art Rock

Bernd "Nossi" Noske (born 17/8/1946, in Berlin) joined Birth Control in 1970, as drummer and second vocalist, after the Cologne band temporarily moved there. It is interesting then, as time has moved on, that Bernd gradually took over and has been the figurehead of Birth Control for many years, and the sole surviving member from the 1970 line-up. In 1999, he released a solo album, Come Out at Night. Very Rare CD!



Track Listing

01. Come Out At Night (06:44)
02. Fortunes Told (04:51)
03. The Bull's Escape (04:58)
04. Music In The Night (The Ghost Of The Market Square) (05:03)
05. One Year And A Day (06:40)
06. My Place (03:47)
07. The Heat Of Summer (Verano En Espana) (04:06)
08. Joanna (03:03)
09. I Put A Spell On You (Screamin' Jay Hawkins cover) (04:32)
10. Alamo (single, 1990 (Bonus track) (04:48)

Produced by Martin Hömberg & Bernd Noske

Personnel

• Bernd Noske - vocals, all instruments except noted
• Bruno Frenzel - bass (01-09), acoustic guitar (01)
• Wollie Kaiser - soprano saxophone (04)
• Julio Castaneda - voice (03)

Notes

In 1975 Bernd Noske was on tour in Spain with famous band BIRTH CONTROL. Deeply impressed from the country and the people he take the liberty to form a solo album. This album is a mirror of his personal impressions. In 1979 the work was done. NOW - after 20 long years - finally you can listen to this wonderful music. ENJOY!

Exact Audio Copy V1.0 beta 1 from 15. November 2010

EAC extraction logfile from 21. August 2012, 20:34

Bernd Noske / come out at night

Used drive : Optiarc DVD RW AD-7263S Adapter: 3 ID: 0

Read mode : Secure
Utilize accurate stream : Yes
Defeat audio cache : Yes
Make use of C2 pointers : No

Read offset correction : 48
Overread into Lead-In and Lead-Out : No
Fill up missing offset samples with silence : Yes
Delete leading and trailing silent blocks : No
Null samples used in CRC calculations : Yes
Used interface : Native Win32 interface for Win NT & 2000

Used output format : User Defined Encoder
Selected bitrate : 32 kBit/s
Quality : High
Add ID3 tag : No
Command line compressor : C:\Program Files\Exact Audio Copy\Flac\flac.exe
Additional command line options : -T "DATE=%y" -T "GENRE=%m" -8 -V %s


TOC of the extracted CD

Track | Start | Length | Start sector | End sector
––––––––––––––––––––––––––––-
1 | 0:00.00 | 6:43.63 | 0 | 30287
2 | 6:43.63 | 4:51.24 | 30288 | 52136
3 | 11:35.12 | 4:57.63 | 52137 | 74474
4 | 16:33.00 | 5:03.01 | 74475 | 97200
5 | 21:36.01 | 6:39.37 | 97201 | 127162
6 | 28:15.38 | 3:46.47 | 127163 | 144159
7 | 32:02.10 | 4:06.09 | 144160 | 162618
8 | 36:08.19 | 3:03.21 | 162619 | 176364
9 | 39:11.40 | 4:32.31 | 176365 | 196795
10 | 43:43.71 | 4:47.41 | 196796 | 218361


Range status and errors

Selected range

Filename C:\Documents and Settings\maxim\Мои документы\Bernd Noske - come out at night.wav

Peak level 100.0 %
Extraction speed 0.3 X
Range quality 100.0 %
Test CRC 0711D122
Copy CRC 0711D122
Copy OK

No errors occurred


AccurateRip summary

Track 1 not present in database
Track 2 not present in database
Track 3 not present in database
Track 4 not present in database
Track 5 not present in database
Track 6 not present in database
Track 7 not present in database
Track 8 not present in database
Track 9 not present in database
Track 10 not present in database

None of the tracks are present in the AccurateRip database

End of status report

==== Log checksum BBFDE1EA791D7904077698C865C112523D47BEDA958A903962D2A2B670C9A71D ====


Many thanks to the original uploader: sergey57s

SEE also:
Birth Control 2005 History [DVD]