Subcategories

Betty Lavette - Souvenirs: The Complete Atlantic/Atco Recordings (2001)

Posted By: BlondStyle
Betty Lavette - Souvenirs: The Complete Atlantic/Atco Recordings (2001)

Betty Lavette - Souvenirs (2001)
R&B, Soul, Northern Soul | EAC Rip | FLAC, Img+CUE+LOG+Scans (JPEG) | 57:23 | 368,71 Mb
Label: Art & Soul (France) | Cat.# 851012 | Released: 2001-01-09
Betty Lavette - Souvenirs: The Complete Atlantic/Atco Recordings (2001)

If the Billboard charts were sufficient to tell the complete story of an artist's career, you'd write off Betty Lavette in a heartbeat after scoring a Top Ten R&B hit with her 1963 Atlantic debut "My Man - He's a Loving Man," Lavette never again returned to the same commercial heights, and the label soon terminated her contract. But she went on to make a series of devastatingly powerful deep soul records for a number of small independent labels, capped off by the 1965 cult classic "Let Me Down Easy," and by 1972 she was back in the Atlantic fold, this time signing to Atco to record a cover of Neil Young's "Heart of Gold" followed by an album's worth of material cut at Muscle Shoals with producer Brad Shapiro. But after the first single "Your Turn to Cry" flopped, the planned LP Child of the 70s was shelved, and Lavette was once again dropped. With the release of Souvenirs, the French Art & Soul label has done what Atlantic failed to do even with a mulligan: pay Lavette and her prodigious talent the respect they deserve. Compiling 18 tracks spanning both of her Atlantic tenures, including Child of the 70s in its entirety, Souvenirs proves Lavette once and for all a singer with the gutbucket grit and intensity of prime Aretha and Tina you can't listen to these songs without wondering what might have been if Atlantic had fully supported her career.
~Review by Jason Ankeny

Betty Lavette - Souvenirs: The Complete Atlantic/Atco Recordings (2001)

Betty Lavette - Souvenirs: The Complete Atlantic/Atco Recordings (2001)




Release of this CD: 2001, January, 9 [CD Art & Soul (France), Cat.# 851012 / UPC: 3307518510128]
This compilation ℗&© 2000 Art & Soul.
Art & Soul is a Division of Body & Soul.
Made in France

Tracklist:

01. It Ain't Easy (02:29)
02. Fortune Teller (03:40)
03. Our Own Love Song (04:36)
04. Soul Tambourine (02:41)
05. Your Turn To Cry (03:15)
06. Ain't Nothing Gonna Change Me (02:46)
07. All The Black And White Children (03:46)
08. If I Can't Be Your Woman (03:52)
09. Outside Woman (02:31)
10. The Stealer (02:27)
11. My Love Is Showing (03:24)
12. Souvenirs (06:30)
13. Heart Of Gold (02:22)
14. You'll Wake Up Wiser (02:12)
15. My Man He's A Loving Man (02:43)
16. Shut Your Mouth (02:37)
17. You'll Never Change (02:47)
18. Here I Am (02:46)

Exact Audio Copy V1.3 from 2. September 2016

EAC extraction logfile from 13. November 2017, 22:17

Betty Lavette / Souvenirs

Used drive : ASUS DRW-24B1ST a Adapter: 1 ID: 0

Read mode : Secure
Utilize accurate stream : Yes
Defeat audio cache : Yes
Make use of C2 pointers : No

Read offset correction : 6
Overread into Lead-In and Lead-Out : No
Fill up missing offset samples with silence : Yes
Delete leading and trailing silent blocks : No
Null samples used in CRC calculations : Yes
Used interface : Native Win32 interface for Win NT & 2000

Used output format : User Defined Encoder
Selected bitrate : 896 kBit/s
Quality : High
Add ID3 tag : No
Command line compressor : C:\Program Files (x86)\Exact Audio Copy\Flac\flac.exe
Additional command line options : %ishigh%-V -p -l 12 -b 4096 -m -e -r 8%ishigh%%islow%-5%islow% –replay-gain -T "ARTIST=%artist%" -T "ALBUM=%albumtitle%" -T "TITLE=%title%" -T "DATE=%year%" -T "TRACKNUMBER=%tracknr%" -T "GENRE=%genre%" -T "ENSEMBLE=%albuminterpret%" -T "ALBUMARTIST=%albumartist%" -T "COMPOSER=%albumcomposer%" -T "DISCNUMBER=%cdnumber%" -T "TOTALDISCS=%totalcds%" -T "TOTALTRACKS=%numtracks%" -T "SOURCEMEDIA=CD" -T "COMMENT=%comment%" %hascover%-T "PICTURE=%coverfile%"%hascover% %source%


TOC of the extracted CD

Track | Start | Length | Start sector | End sector
––––––––––––––––––––––––––––-
1 | 0:00.00 | 2:28.46 | 0 | 11145
2 | 2:28.46 | 3:39.62 | 11146 | 27632
3 | 6:08.33 | 4:36.31 | 27633 | 48363
4 | 10:44.64 | 2:41.01 | 48364 | 60439
5 | 13:25.65 | 3:15.18 | 60440 | 75082
6 | 16:41.08 | 2:46.22 | 75083 | 87554
7 | 19:27.30 | 3:45.45 | 87555 | 104474
8 | 23:13.00 | 3:52.12 | 104475 | 121886
9 | 27:05.12 | 2:30.41 | 121887 | 133177
10 | 29:35.53 | 2:26.40 | 133178 | 144167
11 | 32:02.18 | 3:23.67 | 144168 | 159459
12 | 35:26.10 | 6:30.23 | 159460 | 188732
13 | 41:56.33 | 2:21.58 | 188733 | 199365
14 | 44:18.16 | 2:12.17 | 199366 | 209282
15 | 46:30.33 | 2:43.13 | 209283 | 221520
16 | 49:13.46 | 2:36.55 | 221521 | 233275
17 | 51:50.26 | 2:46.47 | 233276 | 245772
18 | 54:36.73 | 2:45.48 | 245773 | 258195


Range status and errors

Selected range

Filename C:\Users\M@ce\Music\Archives\Rips\Burn WAV\Betty Lavette - Souvenirs.wav

Peak level 100.0 %
Extraction speed 6.2 X
Range quality 100.0 %
Test CRC 54F05BD3
Copy CRC 54F05BD3
Copy OK

No errors occurred


AccurateRip summary

Track 1 accurately ripped (confidence 6) [76D4E2A0] (AR v1)
Track 2 accurately ripped (confidence 6) [67FA8288] (AR v1)
Track 3 accurately ripped (confidence 6) [8356655C] (AR v1)
Track 4 accurately ripped (confidence 6) [834EC436] (AR v1)
Track 5 accurately ripped (confidence 6) [BDD3F745] (AR v1)
Track 6 accurately ripped (confidence 6) [917F5DC7] (AR v1)
Track 7 accurately ripped (confidence 6) [BDE7736D] (AR v1)
Track 8 accurately ripped (confidence 6) [B81F9FF1] (AR v1)
Track 9 accurately ripped (confidence 6) [5355C7FD] (AR v1)
Track 10 accurately ripped (confidence 6) [67238467] (AR v1)
Track 11 accurately ripped (confidence 6) [BB71C659] (AR v1)
Track 12 accurately ripped (confidence 6) [F74EC9EC] (AR v1)
Track 13 accurately ripped (confidence 6) [318976F2] (AR v1)
Track 14 accurately ripped (confidence 6) [AC0115F7] (AR v1)
Track 15 accurately ripped (confidence 6) [ABA41259] (AR v1)
Track 16 accurately ripped (confidence 6) [61979760] (AR v1)
Track 17 accurately ripped (confidence 6) [74C7149B] (AR v1)
Track 18 accurately ripped (confidence 6) [6D48EB26] (AR v1)

All tracks accurately ripped

End of status report

–– CUETools DB Plugin V2.1.6

[CTDB TOCID: tItLrmmL401Gt5HPpU4FzKGH6zw-] found
Submit result: tItLrmmL401Gt5HPpU4FzKGH6zw- has been confirmed
Track | CTDB Status
1 | (10/10) Accurately ripped
2 | (10/10) Accurately ripped
3 | (10/10) Accurately ripped
4 | (10/10) Accurately ripped
5 | (10/10) Accurately ripped
6 | (10/10) Accurately ripped
7 | (10/10) Accurately ripped
8 | (10/10) Accurately ripped
9 | (10/10) Accurately ripped
10 | (10/10) Accurately ripped
11 | (10/10) Accurately ripped
12 | (10/10) Accurately ripped
13 | (10/10) Accurately ripped
14 | (10/10) Accurately ripped
15 | (10/10) Accurately ripped
16 | (10/10) Accurately ripped
17 | (10/10) Accurately ripped
18 | (10/10) Accurately ripped


==== Log checksum 1719C343B08A371EA54BAEFB3F4D16E3A3E5048644D0391FE334F0982E706964 ====

––––––––––––––––––––––––––––––––––––––––
Analyzed: Betty Lavette / Souvenirs
––––––––––––––––––––––––––––––––––––––––

DR Peak RMS Duration Track
––––––––––––––––––––––––––––––––––––––––
DR11 0.00 dB -15.69 dB 2:29 01-It Ain't Easy
DR11 0.00 dB -16.28 dB 3:40 02-Fortune Teller
DR9 0.00 dB -14.44 dB 4:36 03-Our Own Love Song
DR11 0.00 dB -14.63 dB 2:41 04-Soul Tambourine
DR11 0.00 dB -15.57 dB 3:15 05-Your Turn To Cry
DR9 0.00 dB -13.02 dB 2:46 06-Ain't Nothing Gonna Change Me
DR11 0.00 dB -16.06 dB 3:46 07-All The Black And White Children
DR13 0.00 dB -18.32 dB 3:52 08-If I Can't Be Your Woman
DR11 0.00 dB -15.56 dB 2:31 09-Outside Woman
DR10 0.00 dB -13.73 dB 2:27 10-The Stealer
DR10 0.00 dB -14.07 dB 3:24 11-My Love Is Showing
DR11 0.00 dB -15.29 dB 6:30 12-Souvenirs
DR13 0.00 dB -15.53 dB 2:22 13-Heart Of Gold
DR13 0.00 dB -15.13 dB 2:12 14-You'll Wake Up Wiser
DR11 0.00 dB -12.97 dB 2:43 15-My Man He's A Loving Man
DR11 0.00 dB -12.51 dB 2:37 16-Shut Your Mouth
DR11 0.00 dB -12.94 dB 2:47 17-You'll Never Change
DR12 0.00 dB -13.91 dB 2:46 18-Here I Am
––––––––––––––––––––––––––––––––––––––––

Number of tracks: 18
Official DR value: DR11

Samplerate: 44100 Hz
Channels: 2
Bits per sample: 16
Bitrate: 797 kbps
Codec: FLAC
================================================================================

Thanks to my friend, M@ce

♫~Welcome To My Blog~♫

password: BlondStyle