Subcategories

Biagio Antonacci - Dediche e Manie (2017)

Posted By: SERTiL
Biagio Antonacci - Dediche e Manie (2017)

Biagio Antonacci - Dediche e Manie (2017)
EAC Rip | FLAC (tracks)+cue, log, m3u, artwork | 337 MB
Label: Sony Music Entertainment Italy – 889854916923, Iris S.R.L. | Tracks: 13 | Time: 50:00 min
Italian Pop, Pop Rock

Nuovo attesissimo disco di inediti del cantautore, PUBBLICATO su etichetta IRIS distribuito da SONY MUSIC ITALIA, con 13 nuovi brani a più di tre anni di distanza dal successo del multiplatino "L'amore comporta”.

Il brano "In mezzo al mondo", scritto da Biagio e arrangiato e prodotto insieme a Fabrizio Ferraguzzo, è caratterizzato da atmosfere anni 80/90 e tiene fede al lato cantautorale tipico dell’artista milanese.

"Se il coraggio portasse il tuo nome lo pronuncerei" è la frase che rappresenta nel miglior modo il tema della canzone, che ci spiega come ogni giorno possiamo innamorarci della vita nonostante non siamo in grado di sapere cosa ci aspetta.

Continuano nel frattempo le vendite del nuovo tour: a poche settimane dall’annuncio sono state raddoppiate le date di Acireale e Padova e triplicata quella di Bari. Il nuovo viaggio live di Biagio Antonacci debutterà il 15 Dicembre dal Nelson Mandela Forum di Firenze e vedrà il cantautore esibirsi sui palcoscenici dei palazzetti più importanti d’Italia.

Biagio Antonacci - Dediche e Manie (2017)


Tracklist:
01. Il migliore 03:44
02. Mio fratello 03:17
03. Sei nell'aria 03:38
04. Un bacio lungo come una canzone 03:08
05. In mezzo al mondo 03:45
06. Fortuna che ci sei 03:42
07. Vorrei amarti anch'io 03:33
08. L'addio che mancava 03:45
09. Perche te ne vai 03:36
10. Super 03:38
11. Stanco 03:44
12. L'appello dei popoli 03:53
13. Annina piena di grazia 03:56

Exact Audio Copy V1.3 from 2. September 2016

EAC extraction logfile from 10. November 2017, 13:59

Biagio Antonacci / Dediche e manie

Used drive : ASUS BC-12D2HT Adapter: 0 ID: 0

Read mode : Secure
Utilize accurate stream : Yes
Defeat audio cache : Yes
Make use of C2 pointers : No

Read offset correction : 6
Overread into Lead-In and Lead-Out : No
Fill up missing offset samples with silence : Yes
Delete leading and trailing silent blocks : No
Null samples used in CRC calculations : Yes
Used interface : Installed external ASPI interface
Gap handling : Appended to previous track

Used output format : User Defined Encoder
Selected bitrate : 1024 kBit/s
Quality : High
Add ID3 tag : No
Command line compressor : C:\Program Files (x86)\Exact Audio Copy\FLAC\FLAC.EXE
Additional command line options : -8 -V -T "Artist=%artist%" -T "Title=%title%" -T "Album=%albumtitle%" -T "DATE=%year%" -T "TRACKNUMBER=%tracknr%" -T "Genre=%genre%" -T "ALBUMARTIST=%albumartist%" -T "ALBUM ARTIST=%albumartist%" -T "COMMENT=EAC Secure Mode, Test & Copy, AccurateRip, FLAC -8" %source%


TOC of the extracted CD

Track | Start | Length | Start sector | End sector
––––––––––––––––––––––––––––-
1 | 0:00.00 | 3:44.13 | 0 | 16812
2 | 3:44.13 | 3:18.24 | 16813 | 31686
3 | 7:02.37 | 3:38.55 | 31687 | 48091
4 | 10:41.17 | 3:08.70 | 48092 | 62261
5 | 13:50.12 | 3:45.72 | 62262 | 79208
6 | 17:36.09 | 3:43.24 | 79209 | 95957
7 | 21:19.33 | 3:34.62 | 95958 | 112069
8 | 24:54.20 | 3:45.07 | 112070 | 128951
9 | 28:39.27 | 3:36.63 | 128952 | 145214
10 | 32:16.15 | 3:38.47 | 145215 | 161611
11 | 35:54.62 | 3:44.55 | 161612 | 178466
12 | 39:39.42 | 3:54.45 | 178467 | 196061
13 | 43:34.12 | 6:33.45 | 196062 | 225581


Track 1

Filename C:\EAC\01. Biagio Antonacci - Il migliore.wav

Pre-gap length 0:00:02.00

Peak level 98.7 %
Extraction speed 3.4 X
Track quality 100.0 %
Test CRC DE541C79
Copy CRC DE541C79
Track not present in AccurateRip database
Copy OK

Track 2

Filename C:\EAC\02. Biagio Antonacci - Mio fratello (feat. Mario Incudine).wav

Pre-gap length 0:00:00.20

Peak level 98.7 %
Extraction speed 2.6 X
Track quality 100.0 %
Test CRC 6844E243
Copy CRC 6844E243
Track not present in AccurateRip database
Copy OK

Track 3

Filename C:\EAC\03. Biagio Antonacci - Sei nell'aria (feat. Laioung).wav

Pre-gap length 0:00:00.70

Peak level 98.7 %
Extraction speed 2.1 X
Track quality 100.0 %
Test CRC 67A4DEC4
Copy CRC 67A4DEC4
Track not present in AccurateRip database
Copy OK

Track 4

Filename C:\EAC\04. Biagio Antonacci - Un bacio lungo come una canzone.wav

Pre-gap length 0:00:00.77

Peak level 98.7 %
Extraction speed 1.2 X
Track quality 100.0 %
Test CRC D4D50D66
Copy CRC D4D50D66
Track not present in AccurateRip database
Copy OK

Track 5

Filename C:\EAC\05. Biagio Antonacci - In mezzo al mondo.wav

Pre-gap length 0:00:00.80

Peak level 98.7 %
Extraction speed 1.4 X
Track quality 100.0 %
Test CRC 79597C2F
Copy CRC 79597C2F
Track not present in AccurateRip database
Copy OK

Track 6

Filename C:\EAC\06. Biagio Antonacci - Fortuna che ci sei.wav

Pre-gap length 0:00:00.92

Peak level 98.7 %
Extraction speed 1.4 X
Track quality 100.0 %
Test CRC 16874DFA
Copy CRC 16874DFA
Track not present in AccurateRip database
Copy OK

Track 7

Filename C:\EAC\07. Biagio Antonacci - Vorrei amarti anch'io.wav

Pre-gap length 0:00:00.92

Peak level 98.7 %
Extraction speed 1.5 X
Track quality 100.0 %
Test CRC 8268F1CB
Copy CRC 8268F1CB
Track not present in AccurateRip database
Copy OK

Track 8

Filename C:\EAC\08. Biagio Antonacci - L'addio che mancava.wav

Pre-gap length 0:00:00.92

Peak level 98.7 %
Extraction speed 1.4 X
Track quality 99.9 %
Test CRC 9C971954
Copy CRC 9C971954
Track not present in AccurateRip database
Copy OK

Track 9

Filename C:\EAC\09. Biagio Antonacci - Perché te ne vai.wav

Peak level 98.7 %
Extraction speed 1.6 X
Track quality 100.0 %
Test CRC 6983DEC9
Copy CRC 6983DEC9
Track not present in AccurateRip database
Copy OK

Track 10

Filename C:\EAC\10. Biagio Antonacci - Super.wav

Peak level 98.7 %
Extraction speed 1.7 X
Track quality 100.0 %
Test CRC 599A7BC8
Copy CRC 599A7BC8
Track not present in AccurateRip database
Copy OK

Track 11

Filename C:\EAC\11. Biagio Antonacci - Stanco.wav

Peak level 98.7 %
Extraction speed 1.5 X
Track quality 99.9 %
Test CRC 896CF93C
Copy CRC 896CF93C
Track not present in AccurateRip database
Copy OK

Track 12

Filename C:\EAC\12. Biagio Antonacci - L'appello dei popoli.wav

Pre-gap length 0:00:00.58

Peak level 98.7 %
Extraction speed 1.8 X
Track quality 100.0 %
Test CRC E7CB0EF8
Copy CRC E7CB0EF8
Track not present in AccurateRip database
Copy OK

Track 13

Filename C:\EAC\13. Biagio Antonacci - Annina piena di grazia.wav

Pre-gap length 0:00:00.92

Peak level 98.7 %
Extraction speed 2.0 X
Track quality 100.0 %
Test CRC 6A6E8910
Copy CRC 6A6E8910
Track not present in AccurateRip database
Copy OK


None of the tracks are present in the AccurateRip database

No errors occurred

End of status report

–– CUETools DB Plugin V2.1.6

[CTDB TOCID: 7Ht8uGLKadPaWNh11_RwAWuMFXA-] disk not present in database
Submit result: 7Ht8uGLKadPaWNh11_RwAWuMFXA- has been uploaded


==== Log checksum D93ED05DE802C87E0C07B6B8B197108743C5205CF95391465718B62B05874D07 ====


Biagio Antonacci - Dediche e Manie (2017)


Thanks to the Original customer.