Subcategories

Big Bad Voodoo Daddy - It Feels Like Christmas Time (2013) {Deluxe Edition} *RE-UP*

Posted By: popsakov
Big Bad Voodoo Daddy - It Feels Like Christmas Time (2013) {Deluxe Edition} *RE-UP*

Big Bad Voodoo Daddy - It Feels Like Christmas Time (2013) {Deluxe Edition}
EAC Rip | FLAC (Img) + Cue + Log ~ 390 Mb | MP3 CBR320 ~ 165 Mb
Scans Included (JPG, 600 dpi) | RAR 5% Recovery
Swing, Big Band | Savoy Jazz #SVY17965

Big Bad Voodoo Daddy, purveyors of American big band, jumpin jazz and blues have a special holiday gift for naughty and nice fans alike. The multi-platinum selling, Grammy nominated band is back with a holiday album entitled It Feels Like Christmas Time, an all new recording for Savoy Jazz, featuring a mix of traditional favorites and original material.
Big Bad Voodoo Daddy - It Feels Like Christmas Time (2013) {Deluxe Edition} *RE-UP*

Track List:

01. Santa Claus Is Coming To Town [03:29]
02. Rudolph The Red-Nosed Reindeer [04:18]
03. All I Want For Christmas (Is My Two Front Teeth) [02:53]
04. Jingle Bells [03:34]
05. It Feels Like Christmastime [03:56]
06. Frosty The Snowman [03:41]
07. Run, Rudolph, Run [03:58]
08. You're A Mean One, Mr. Grinch [03:25]
09. Christmas Is Starting Now [03:08]
10. We Three Kings [03:28]
11. Winter Wonderland [03:46]
12. What Are You Doing New Years Eve? [04:01]
13. Auld Lang Syne [02:43]

Exact Audio Copy V1.0 beta 3 from 29. August 2011

Отчёт EAC об извлечении, выполненном 23. октября 2013, 21:03

Big Bad Voodoo Daddy / It Feels Like Christmas Time (Deluxe)

Дисковод: PLEXTOR DVDR PX-880SA Adapter: 1 ID: 0

Режим чтения : Достоверность
Использование точного потока : Да
Отключение кэша аудио : Да
Использование указателей C2 : Нет

Коррекция смещения при чтении : 6
Способность читать области Lead-in и Lead-out : Нет
Заполнение пропущенных сэмплов тишиной : Да
Удаление блоков с тишиной в начале и конце : Нет
При вычислениях CRC использовались нулевые сэмплы : Да
Интерфейс : Установленный внешний ASPI-интерфейс

Выходной формат : Пользовательский кодировщик
Выбранный битрейт : 1024 kBit/s
Качество : Высокий
Добавление ID3-тега : Нет
Утилита сжатия : C:\Program Files\Exact Audio Copy\FLAC\FLAC.EXE
Дополнительные параметры : -10 -V -T "ARTIST=%artist%" -T "TITLE=%title%" -T "ALBUM=%albumtitle%" -T "DATE=%year%" -T "TRACKNUMBER=%tracknr%" -T "GENRE=%genre%" -T "COMMENT=%comment%" -T "BAND=%albuminterpret%" -T "ALBUMARTIST=%albuminterpret%" -T "COMPOSER=%composer%" %haslyrics%–tag-from-file=LYRICS="%lyricsfile%"%haslyrics% -T "DISCNUMBER=%cdnumber%" -T "TOTALDISCS=%totalcds%" -T "TOTALTRACKS=%numtracks%" %hascover%–picture="%coverfile%"%hascover% %source% -o %dest%


TOC извлечённого CD

Трек | Старт | Длительность | Начальный сектор | Конечный сектор
––––––––––––––––––––––––––––––––––-
1 | 0:00.00 | 3:30.16 | 0 | 15765
2 | 3:30.16 | 4:18.58 | 15766 | 35173
3 | 7:48.74 | 2:53.47 | 35174 | 48195
4 | 10:42.46 | 3:34.30 | 48196 | 64275
5 | 14:17.01 | 3:56.25 | 64276 | 82000
6 | 18:13.26 | 3:41.24 | 82001 | 98599
7 | 21:54.50 | 3:58.00 | 98600 | 116449
8 | 25:52.50 | 3:25.72 | 116450 | 131896
9 | 29:18.47 | 3:08.41 | 131897 | 146037
10 | 32:27.13 | 3:28.16 | 146038 | 161653
11 | 35:55.29 | 3:46.13 | 161654 | 178616
12 | 39:41.42 | 4:01.24 | 178617 | 196715
13 | 43:42.66 | 2:43.55 | 196716 | 208995


Характеристики диапазона извлечения и сообщения об ошибках

Выбранный диапазон

Имя файла D:\BitComet\Big Bad Voodoo Daddy - It Feels Like Christmas Time (Deluxe)(2013)\Big Bad Voodoo Daddy - It Feels Like Christmas Time (Deluxe).wav

Пиковый уровень 98.8 %
Скорость извлечения 7.9 X
Качество диапазона 100.0 %
CRC теста E6E07DB4
CRC копии E6E07DB4
Копирование… OK

Ошибок не произошло


AccurateRip: сводка

Трек 1 отсутствует в базе данных
Трек 2 отсутствует в базе данных
Трек 3 отсутствует в базе данных
Трек 4 отсутствует в базе данных
Трек 5 отсутствует в базе данных
Трек 6 отсутствует в базе данных
Трек 7 отсутствует в базе данных
Трек 8 отсутствует в базе данных
Трек 9 отсутствует в базе данных
Трек 10 отсутствует в базе данных
Трек 11 отсутствует в базе данных
Трек 12 отсутствует в базе данных
Трек 13 отсутствует в базе данных

Ни одного трека нет в базе AccurateRip

Конец отчёта

==== Контрольная сумма отчёта A94C1C07BD0DDB7018BB1F0894C1980A24A3E2831C88C350CD52EE72319EED03 ====

foobar2000 1.2.6 / Dynamic Range Meter 1.1.1
log date: 2013-10-25 10:44:34

––––––––––––––––––––––––––––––––––––––––
Analyzed: Big Bad Voodoo Daddy / It Feels Like Christmas Time (Deluxe)
––––––––––––––––––––––––––––––––––––––––

DR Peak RMS Duration Track
––––––––––––––––––––––––––––––––––––––––
DR8 -0.10 dB -10.13 dB 3:30 01-Santa Claus Is Coming To Town
DR8 -0.10 dB -9.79 dB 4:19 02-Rudolph The Red-Nosed Reindeer
DR8 -0.10 dB -9.78 dB 2:54 03-All I Want For Christmas (Is My Two Front Teeth)
DR7 -0.10 dB -9.64 dB 3:34 04-Jingle Bells
DR8 -0.10 dB -11.07 dB 3:56 05-It Feels Like Christmastime
DR8 -0.10 dB -9.32 dB 3:41 06-Frosty The Snowman
DR7 -0.10 dB -8.74 dB 3:58 07-Run, Rudolph, Run
DR8 -0.10 dB -9.66 dB 3:26 08-You're A Mean One, Mr. Grinch
DR7 -0.10 dB -8.11 dB 3:09 09-Christmas Is Starting Now
DR10 -0.10 dB -13.52 dB 3:28 10-We Three Kings
DR9 -0.10 dB -10.24 dB 3:46 11-Winter Wonderland
DR10 -0.10 dB -12.71 dB 4:01 12-What Are You Doing New Years Eve?
DR9 -0.10 dB -11.62 dB 2:44 13-Auld Lang Syne
––––––––––––––––––––––––––––––––––––––––

Number of tracks: 13
Official DR value: DR8

Samplerate: 44100 Hz
Channels: 2
Bits per sample: 16
Bitrate: 956 kbps
Codec: FLAC
================================================================================

Big Bad Voodoo Daddy - It Feels Like Christmas Time (2013) {Deluxe Edition} *RE-UP*

All thanks go to izia1956

>>> Big Bad Voodoo Daddy in my Blog <<<

Download from icerbox.com: