Subcategories

Bill Wyman's Rhythm Kings - Studio Time (2018)

Posted By: popsakov
Bill Wyman's Rhythm Kings - Studio Time (2018)

Bill Wyman's Rhythm Kings - Studio Time (2018)
EAC Rip | FLAC (Img) + Cue + Log ~ 401 Mb | Scans Included (JPG, 600 dpi) | RAR 5% Recovery
Rhythm & Blues, Blues, Rock & Roll, Roots Rock, Jazz | Edsel Records #EDSL0019

This special set of studio recordings, the first ones to be issued since 2004, gathers up fifteen outtakes from eight different sessions, including two songs from as far back as March 1987 (before the actual formation of the Rhythm Kings). These previously overlooked and unheard gems have been newly mixed for this album by Bill Wyman and Terry Taylor. The booklet contains all the musician credits. It's a very eclectic selection of songs, from Midnight Oil to Canned Heat to Dan Hicks, via classics by Willie Dixon, Slim Harpo, Jimmie Rodgers, Louis Jordan and Don Covay, and some originals - there's a solo song by Georgie Fame, "Skiing Blues", and "Jazz Walk", a Wyman/Fame co-write. Bill Wyman put together his ten-piece Rhythm Kings ensemble after leaving the Rolling Stones in 1992. The band has a core rhythm section, but features a revolving combination of all-star guest front men and women. These recordings feature the talents of Gary Brooker, Georgie Fame, Beverley Skeete, Terry Taylor, Mike Sanchez, Andy Fairweather Low, Martin Taylor, Chris Stainton and Albert Lee.
Bill Wyman's Rhythm Kings - Studio Time (2018)


***************

Bill Wyman's Rhythm Kings - Studio Time (2018)

Track List:

01. Beds Are Burning [4:23]
02. Open the Door [3:20]
03. You're the One [3:01]
04. Going Up the Country [3:08]
05. Long Comma Viper [2:47]
06. My Wife Can't Cook [3:52]
07. I'm Shorty [3:59]
08. Got Love If You Want It [4:44]
09. Shoes [3:52]
10. Dr Watson Mr Holmes [3:08]
11. These Kind of Blues [4:21]
12. Blue Light Boogie [3:44]
13. Skiing Blues [4:37]
14. Santa Baby [2:53]
15. Jazz Walk [4:40]

Personnel:
Lead vocal:
Beverley Skeety (1, 9, 12, 14), Bill Wyman (1)
Mike Sanchez (2, 6), Geoff Grange (3, 8)
Andy Fairweather Low (4), George Fame (5, 10, 13, 15)
Frank Mead (7), Terry Taylor (11)

Guitars:
Terry Taylor (1-12, 14, 15), Martin Taylor (5, 7, 14)
Tommy Emmanuel (7), Andy Fairweather Low (8)

Bass - Bill Wyman (1-12, 14, 15)
Mandolin - Andy Fairweather Low (4), Martin Taylor (14)

Piano:
Gary Brooker (1, 9), Chris Staiton (2)
Nicki Hopkins (3, 8), Dave Hartley (5, 14)
Mike Sanchez (6, 11), Alex Zwingelberger (12)
Mike Sanchez (15)

Organ - Georgie Fame (1, 5, 7, 9, 13)
Harmonica - Geoff Grange (3, 8), Nick Payn (4), Frank Mead (7, 11)
Drums - Graham Broad (1, 2, 4-7, 9-12, 14, 15), Chris Johnson (3, 8)
Horns:
Frank Mead: (1, 2, 6, 9, 11, 12, 14, 15)
Nick Payn (1, 2, 6, 9, 11, 12, 14, 15)

Trumpet - Sid Gauld (2, 15)
Flute - Nick Payn (4)
Sax Solo - Nick Payn (6, 10, 12)

Backing vocals:
Beverley Skeete (1, 5-7, 9, 11, 12, 14), Bill Wyman (2)
Terry Taylor (1, 2, 11, Linzi Hunter (6, 14)
Mike Sanchez (6)

Exact Audio Copy V1.3 from 2. September 2016

EAC extraction logfile from 5. May 2018, 10:28

Bill Wyman's Rhythm Kings / Studio Time

Used drive : ATAPI iHAS122 C Adapter: 1 ID: 0

Read mode : Secure
Utilize accurate stream : Yes
Defeat audio cache : Yes
Make use of C2 pointers : No

Read offset correction : 6
Overread into Lead-In and Lead-Out : No
Fill up missing offset samples with silence : Yes
Delete leading and trailing silent blocks : No
Null samples used in CRC calculations : Yes
Used interface : Native Win32 interface for Win NT & 2000

Used output format : Internal WAV Routines
Sample format : 44.100 Hz; 16 Bit; Stereo


TOC of the extracted CD

Track | Start | Length | Start sector | End sector
––––––––––––––––––––––––––––-
1 | 0:00.00 | 4:22.53 | 0 | 19702
2 | 4:22.53 | 3:20.33 | 19703 | 34735
3 | 7:43.11 | 3:01.16 | 34736 | 48326
4 | 10:44.27 | 3:07.48 | 48327 | 62399
5 | 13:52.00 | 2:46.66 | 62400 | 74915
6 | 16:38.66 | 3:52.16 | 74916 | 92331
7 | 20:31.07 | 3:58.39 | 92332 | 110220
8 | 24:29.46 | 4:44.23 | 110221 | 131543
9 | 29:13.69 | 3:51.53 | 131544 | 148921
10 | 33:05.47 | 3:07.62 | 148922 | 163008
11 | 36:13.34 | 4:21.07 | 163009 | 182590
12 | 40:34.41 | 3:43.45 | 182591 | 199360
13 | 44:18.11 | 4:36.43 | 199361 | 220103
14 | 48:54.54 | 2:53.31 | 220104 | 233109
15 | 51:48.10 | 4:40.17 | 233110 | 254126


Range status and errors

Selected range

Filename C:\Users\Arthur\Desktop\Bill Wyman's Rhythm Kings - Studio Time.wav

Peak level 100.0 %
Extraction speed 8.0 X
Range quality 99.9 %
Test CRC CC390095
Copy CRC CC390095
Copy OK

No errors occurred


AccurateRip summary

Track 1 not present in database
Track 2 not present in database
Track 3 not present in database
Track 4 not present in database
Track 5 not present in database
Track 6 not present in database
Track 7 not present in database
Track 8 not present in database
Track 9 not present in database
Track 10 not present in database
Track 11 not present in database
Track 12 not present in database
Track 13 not present in database
Track 14 not present in database
Track 15 not present in database

None of the tracks are present in the AccurateRip database

End of status report

–– CUETools DB Plugin V2.1.6

[CTDB TOCID: HWX86oJW.K67Gdolw_MXecz5ljI-] disk not present in database
Submit result: HWX86oJW.K67Gdolw_MXecz5ljI- has been uploaded


==== Log checksum 89F6D7733F65535EFF3281D698F4EF2610E4621EBE8C260245A5B1322F843F97 ====

foobar2000 1.3.16 / Dynamic Range Meter 1.1.1
log date: 2018-05-05 20:59:25

––––––––––––––––––––––––––––––––––––––––
Analyzed: Bill Wyman's Rhythm Kings / Studio Time
––––––––––––––––––––––––––––––––––––––––

DR Peak RMS Duration Track
––––––––––––––––––––––––––––––––––––––––
DR7 -0.01 dB -9.04 dB 4:23 01-Beds Are Burning
DR9 -0.01 dB -9.77 dB 3:20 02-Open the Door
DR7 -0.02 dB -8.63 dB 3:01 03-You're the One
DR7 -0.02 dB -8.17 dB 3:08 04-Going Up the Country
DR7 -0.01 dB -8.29 dB 2:47 05-Long Comma Viper
DR8 0.00 dB -9.38 dB 3:52 06-My Wife Can't Cook
DR9 -0.01 dB -10.65 dB 3:59 07-I'm Shorty
DR7 -0.02 dB -7.47 dB 4:44 08-Got Love If You Want It
DR7 -0.02 dB -8.37 dB 3:52 09-Shoes
DR8 -0.02 dB -9.59 dB 3:08 10-Dr Watson Mr Holmes
DR7 0.00 dB -8.39 dB 4:21 11-These Kind of Blues
DR9 0.00 dB -10.38 dB 3:44 12-Blue Light Boogie
DR11 -0.02 dB -13.75 dB 4:37 13-Skiing Blues
DR11 0.00 dB -12.95 dB 2:53 14-Santa Baby
DR10 0.00 dB -11.75 dB 4:40 15-Jazz Walk
––––––––––––––––––––––––––––––––––––––––

Number of tracks: 15
Official DR value: DR8

Samplerate: 44100 Hz
Channels: 2
Bits per sample: 16
Bitrate: 892 kbps
Codec: FLAC
================================================================================

[CUETools log; Date: 05.05.2018 20:59:32; Version: 2.1.6]
[CTDB TOCID: HWX86oJW.K67Gdolw_MXecz5ljI-] found.
Track | CTDB Status
1 | (1/1) Accurately ripped
2 | (1/1) Accurately ripped
3 | (1/1) Accurately ripped
4 | (1/1) Accurately ripped
5 | (1/1) Accurately ripped
6 | (1/1) Accurately ripped
7 | (1/1) Accurately ripped
8 | (1/1) Accurately ripped
9 | (1/1) Accurately ripped
10 | (1/1) Accurately ripped
11 | (1/1) Accurately ripped
12 | (1/1) Accurately ripped
13 | (1/1) Accurately ripped
14 | (1/1) Accurately ripped
15 | (1/1) Accurately ripped
[AccurateRip ID: 001e246b-01579f61-c30d3c0f] disk not present in database.

Track Peak [ CRC32 ] [W/O NULL] [ LOG ]
– 100,0 [CC390095] [927AB8A6] CRC32
01 99,8 [C90EEE44] [5DFE7909]
02 99,9 [CE6A0E5A] [DC529009]
03 99,8 [69595ADE] [6DBF8D57]
04 99,8 [C8C7FE59] [E1244B21]
05 99,8 [C6BA4935] [1F9F385B]
06 99,9 [7DF56C96] [41E4621F]
07 99,9 [67786B29] [970EEAF9]
08 99,8 [16B71A9B] [73C7DA66]
09 99,8 [0BE0DDB2] [D6149275]
10 99,8 [E79DB693] [639286F4]
11 99,9 [1590DDDB] [E3BFAF20]
12 100,0 [6E5550B9] [7FEBD816]
13 99,7 [EE92FD01] [D76FC0F2]
14 100,0 [8A64AF60] [53A31138]
15 100,0 [25B43CBD] [302244B3]

Bill Wyman's Rhythm Kings - Studio Time (2018)

All thanks go to London

>>> Bill Wyman in my Blog <<<